Loading...
Error

Скачать Мистер Селфридж / Mr. Selfridge (сезон 01) (Энтони Бирн, Майкл Кейллор, Джон Джонс) [2013, драма, WEB-DLRip-AVC] [MVO (BaibaKo)] торрент без регистрации

 
Статистика раздачи
Размер:  6,26 GB   |    Скачан:  118 раз
Сидов:  1  [  0 KB/s  ]  
 
Автор Сообщение

МихаНЕзатор

[] 

Название: Мистер Селфридж
Оригинальное название: Mr. Selfridge
Год выпуска: 2013
Жанр: драма
Режиссер: Энтони Бирн, Майкл Кейллор, Джон Джонс
В ролях: Джереми Пивен, Фрэнсис О'Коннор, Айслинг Лофтус, Том Гудман-Хилл, Аманда Аббингтон, Кэтрин Келли, Рон Кук, Зои Таппер и др

Описание: В центре внимания амбициозного проекта американский предприниматель, Г. Г. Селфридж, в 1906 году, во время своего первого визита в Лондон, утвердившийся во мнении, что Англия испытывает дефицит толковых торговых центров, и открывший своё первое подобное заведение в 1909-м. Мы увидем взлёт и падение бизнесмена-революционера, растянувшиеся на три десятилетия, с 1909 по 1939.



Страна: Великобритания
Продолжительность: 10 x ~ 01:00:00
Перевод: Профессиональный (многоголосый, закадровый) - Baibako
Субтитры: вшитые субтитры на песни

Перевод: vipere
Озвучка: Сергей Корчак, Ольга Мотрич, Лира Грим и Виталий Ткаченк
Монтаж: Павел Дежин
Обложка: Татьяна Saavick

Качество: WEB-DLRip-AVC
Формат: MPEG-4
Видео: AVC, 1536 Кбит/сек, 720x400 25,000 кадров/сек
Аудио rus: AAC, 2 канала, 48,0 КГц 192 Кбит/сек
Аудио eng: AAC, 2 канала, 48,0 КГц 192 Кбит/сек

Релиз от:

Добавлена 10-ая серия.
Формат : MPEG-4
Профиль формата : Base Media
Идентификатор кодека : isom
Размер файла : 857 Мбайт
Продолжительность : 1 ч. 2 м.
Общий поток : 1924 Кбит/сек
Дата кодирования : UTC 2013-01-21 21:47:13
Дата пометки : UTC 2013-01-21 21:47:13

Видео
Идентификатор : 1
Формат : AVC
Формат/Информация : Advanced Video Codec
Профиль формата : Baseline@L3.0
Параметр CABAC формата : Нет
Параметр ReFrames формата : 3 кадра
Идентификатор кодека : avc1
Идентификатор кодека/Информация : Advanced Video Coding
Продолжительность : 1 ч. 2 м.
Вид битрейта : Переменный
Битрейт : 1536 Кбит/сек
Максимальный битрейт : 10000 Кбит/сек
Ширина : 720 пикс.
Высота : 400 пикс.
Соотношение сторон : 16:9
Режим частоты кадров : Постоянный
Частота кадров : 25,000 кадр/сек
Цветовое пространство : YUV
Подвыборка цветности : 4:2:0
Битовая глубина : 8 бит
Тип развёртки : Прогрессивная
Бит/(Пиксели*Кадры) : 0.213
Размер потока : 684 Мбайт (80%)
Заголовок : Mr Selfridge S01E01 Episode One 720p WEB DL AAC2 0 H 264 BS
Библиотека кодирования : x264 core 125 r2208 d9d2288
Настройки программы : cabac=0 / ref=3 / deblock=1:0:0 / analyse=0x1:0x111 / me=hex / subme=7 / psy=1 / psy_rd=1.00:0.00 / mixed_ref=1 / me_range=16 / chroma_me=1 / trellis=1 / 8x8dct=0 / cqm=0 / deadzone=21,11 / fast_pskip=1 / chroma_qp_offset=-2 / threads=6 / lookahead_threads=1 / sliced_threads=0 / nr=0 / decimate=1 / interlaced=0 / bluray_compat=0 / constrained_intra=0 / bframes=0 / weightp=0 / keyint=250 / keyint_min=25 / scenecut=40 / intra_refresh=0 / rc_lookahead=40 / rc=2pass / mbtree=1 / bitrate=1536 / ratetol=1.0 / qcomp=0.60 / qpmin=0 / qpmax=69 / qpstep=4 / cplxblur=20.0 / qblur=0.5 / vbv_maxrate=10000 / vbv_bufsize=10000 / nal_hrd=vbr / ip_ratio=1.40 / aq=1:1.00
Дата кодирования : UTC 2013-01-19 07:09:16
Дата пометки : UTC 2013-01-21 21:48:32

Аудио #1
Идентификатор : 2
Формат : AAC
Формат/Информация : Advanced Audio Codec
Профиль формата : LC
Идентификатор кодека : 40
Продолжительность : 1 ч. 2 м.
Вид битрейта : Переменный
Битрейт : 192 Кбит/сек
Максимальный битрейт : 200 Кбит/сек
Каналы : 2 канала
Расположение каналов : Front: L R
Частота : 48,0 КГц
Метод сжатия : С потерями
Размер потока : 85,6 Мбайт (10%)
Язык : Russian
Дата кодирования : UTC 2013-01-21 21:48:26
Дата пометки : UTC 2013-01-21 21:48:32

Аудио #2
Идентификатор : 3
Формат : AAC
Формат/Информация : Advanced Audio Codec
Профиль формата : LC
Идентификатор кодека : 40
Продолжительность : 1 ч. 2 м.
Вид битрейта : Переменный
Битрейт : 192 Кбит/сек
Максимальный битрейт : 200 Кбит/сек
Каналы : 2 канала
Расположение каналов : Front: L R
Частота : 48,0 КГц
Метод сжатия : С потерями
Размер потока : 85,6 Мбайт (10%)
Язык : English
Дата кодирования : UTC 2013-01-21 21:48:28
Дата пометки : UTC 2013-01-21 21:48:32



Скачать Мистер.Селфридж.Mr.Selfridge.(сезон.01).(Энтони.Бирн.Майкл.Кейллор.Джон.Джонс).[2013.драма.WEB-DLRip-AVC].[MVO.(BaibaKo)].torrent без регистрации
Золото ЗОЛОТАЯ РАЗДАЧА! СКАЧАННОЕ НЕ ЗАСЧИТЫВАЕТСЯ! Золото
Дата: Зарегистрирован   [ Тип: внутренний ] Как тут cкачать?
MAGNET ссылка
MAGNET ссылка


Скачать .torrent

33 KB

Статус: проверено DHT
Скачан: торрент - 118 раз, раздача полностью - 0 раз
Размер: 6,26 GB
Оценка:  - (Голосов: 0)
Поблагодарили: 0
Поделиться ссылкой на эту раздачу с друзьями:
В контактеFacebookОдноклассникиTwitterLivejournalМой МирLiveinternet
 

 
Показать сообщения:    


Вы не можете начинать темы
Вы не можете отвечать на сообщения
Вы не можете редактировать свои сообщения
Вы не можете удалять свои сообщения
Вы не можете голосовать в опросах
Вы не можете прикреплять файлы к сообщениям
Вы можете скачивать файлы