Loading...
Error

Скачать Австралия / Australia (Баз Лурман) [2008, драма, мелодрама, приключения, военный, история, BDRip-AVC] [Dub]+[AVO]+[Sub] торрент без регистрации

 
Статистика раздачи
Размер:  3,72 GB   |    Скачан:  120 раз
Сидов:  1  [  0 KB/s  ]  
 
Автор Сообщение

Marsianka

[] 

Информация о фильме
Название: Австралия
Оригинальное название: Australia
Год выхода: 2008
Жанр: драма, мелодрама, приключения, военный, история
Режиссер: Баз Лурман
В ролях: Хью Джекман, Ши Адамс, Николь Кидман, Эдди Бару, Рэй Баррет, Тони Бэрри, Джамал Беднарз-Металлах, Дамиан Брэдфорд, Брайан Браун, Натин Батлер, Тара Карпентер, Брэндон Уолтерс, Джек Томпсон, Дэвид Уэнэм, Ребекка Чатфайлд, Лиллиэн Кромби, Макс Каллен, Эсси Дэвис, Артур Дигнам, Мишель Дизла, Хайди Гаудри, Сэнди Гор

О фильме:
В основе сюжета положена история английской аристократки, получающей в наследство огромное ранчо на севере австралийского материка. Перед началом Второй мировой войны она приезжает в имение для того, чтобы оберечь его от попыток английских скотоводов заполучить ранчо под названием «Faraway Downs» в свою собственность, и сталкивается с необходимостью при помощи героя Джекмена перегнать 1500 голов скота через тысячи миль в город Дарвин. Там двое попадают под массированные бомбардировки со стороны японского Императорского флота.



Страна: США, Великобритания, Австралия, 20th Century Fox Film Corporation, Bazmark Films
Продолжительность: 02:45:28
Перевод: Дублированный, авторский одноголосый
Субтитры: Русские
Дата релиза: 14.03.2013

Файл
Кодек: H.264
Качество: BDRip (AVC) (Blu-Ray Remux (1080p))
Видео: MPEG-4 AVC, 1999 Кбит/с, 1024x436
Звук:
Аудио 1: Русский (AC3, 6 ch, 384 Кбит/с) - Дублированный
Аудио 2: Русский (AC3, 6 ch, 448 Кбит/с) - Авторский одноголосый (Сербин)
Аудио 3: Английский (AC3, 6 ch, 384 Кбит/с)
Общее
Уникальный идентификатор : 186999927578249265484421704353223714522 (0x8CAEE042548C0A5BB244B4E513D2A6DA)
Полное имя : D:2Avstralija.2008.x264.BDRip.(AVC).ExKinoRay.mkv
Формат : Matroska
Размер файла : 3,72 Гбайт
Продолжительность : 2 ч. 45 м.
Общий поток : 3216 Кбит/сек
Название фильма : Avstralija.2008.x264.BDRip.(AVC).ExKinoRay
Дата кодирования : UTC 2013-03-14 19:45:51
Программа кодирования : mkvmerge v4.0.0 ('The Stars were mine') сборка от Jun 6 2010 16:18:42
Библиотека кодирования : libebml v1.0.0 + libmatroska v1.0.0

Видео
Идентификатор : 1
Формат : AVC
Формат/Информация : Advanced Video Codec
Профиль формата : High@L4.1
Параметр CABAC формата : Да
Параметр ReFrames формата : 10 кадров
Идентификатор кодека : V_MPEG4/ISO/AVC
Продолжительность : 2 ч. 45 м.
Битрейт : 1999 Кбит/сек
Ширина : 1024 пикс.
Высота : 436 пикс.
Соотношение сторон : 2,35:1
Частота кадров : 23,976 кадр/сек
Цветовое пространство : YUV
Подвыборка цветности : 4:2:0
Битовая глубина : 8 бит
Тип развёртки : Прогрессивная
Бит/(Пиксели*Кадры) : 0.187
Размер потока : 2,24 Гбайт (60%)
Заголовок : Avstralija.2008.x264.BDRip.(AVC).ExKinoRay
Библиотека кодирования : x264 core 129 r2245 bc13772
Настройки программы : cabac=1 / ref=10 / deblock=1:-3:-3 / analyse=0x3:0x133 / me=umh / subme=11 / psy=1 / psy_rd=1.00:0.00 / mixed_ref=1 / me_range=48 / chroma_me=1 / trellis=2 / 8x8dct=1 / cqm=0 / deadzone=21,11 / fast_pskip=0 / chroma_qp_offset=-2 / threads=3 / lookahead_threads=1 / sliced_threads=0 / nr=0 / decimate=0 / interlaced=0 / bluray_compat=0 / constrained_intra=0 / bframes=8 / b_pyramid=2 / b_adapt=2 / b_bias=0 / direct=3 / weightb=1 / open_gop=0 / weightp=2 / keyint=240 / keyint_min=23 / scenecut=40 / intra_refresh=0 / rc_lookahead=40 / rc=2pass / mbtree=1 / bitrate=1999 / ratetol=1.0 / qcomp=0.60 / qpmin=10 / qpmax=51 / qpstep=4 / cplxblur=20.0 / qblur=0.5 / ip_ratio=1.40 / aq=2:1.00
Язык : English

Аудио #1
Идентификатор : 2
Формат : AC-3
Формат/Информация : Audio Coding 3
Расширение режима : CM (complete main)
Идентификатор кодека : A_AC3
Продолжительность : 2 ч. 45 м.
Вид битрейта : Постоянный
Битрейт : 384 Кбит/сек
Каналы : 6 каналов
Расположение каналов : Front: L C R, Side: L R, LFE
Частота : 48,0 КГц
Битовая глубина : 16 бит
Метод сжатия : С потерями
Размер потока : 455 Мбайт (12%)
Заголовок : Дублированный
Язык : Russian

Аудио #2
Идентификатор : 3
Формат : AC-3
Формат/Информация : Audio Coding 3
Расширение режима : CM (complete main)
Идентификатор кодека : A_AC3
Продолжительность : 2 ч. 45 м.
Вид битрейта : Постоянный
Битрейт : 448 Кбит/сек
Каналы : 6 каналов
Расположение каналов : Front: L C R, Side: L R, LFE
Частота : 48,0 КГц
Битовая глубина : 16 бит
Метод сжатия : С потерями
Размер потока : 530 Мбайт (14%)
Заголовок : Авторский одноголосый (Юрий Сербин)
Язык : Russian

Аудио #3
Идентификатор : 4
Формат : AC-3
Формат/Информация : Audio Coding 3
Расширение режима : CM (complete main)
Идентификатор кодека : A_AC3
Продолжительность : 2 ч. 45 м.
Вид битрейта : Постоянный
Битрейт : 384 Кбит/сек
Каналы : 6 каналов
Расположение каналов : Front: L C R, Side: L R, LFE
Частота : 48,0 КГц
Битовая глубина : 16 бит
Метод сжатия : С потерями
Размер потока : 455 Мбайт (12%)
Заголовок : Английский
Язык : English

Текст
Идентификатор : 5
Формат : UTF-8
Идентификатор кодека : S_TEXT/UTF8
Идентификатор кодека/Информация : UTF-8 Plain Text
Язык : Russian

Меню
00:00:00.000 : en:Chapter 01
00:05:03.886 : en:Chapter 02
00:06:08.785 : en:Chapter 03
00:16:17.893 : en:Chapter 04
00:22:30.557 : en:Chapter 05
00:26:59.117 : en:Chapter 06
00:32:40.333 : en:Chapter 07
00:41:30.613 : en:Chapter 08
00:52:23.014 : en:Chapter 09
00:57:29.320 : en:Chapter 10
01:00:07.520 : en:Chapter 11
01:09:48.893 : en:Chapter 12
01:14:57.409 : en:Chapter 13
01:18:07.099 : en:Chapter 14
01:29:32.450 : en:Chapter 15
01:38:19.226 : en:Chapter 16
01:44:46.655 : en:Chapter 17
01:47:32.320 : en:Chapter 18
01:54:33.074 : en:Chapter 19
01:56:05.583 : en:Chapter 20
02:03:37.660 : en:Chapter 21
02:08:31.370 : en:Chapter 22
02:14:35.108 : en:Chapter 23
02:23:16.838 : en:Chapter 24
02:33:59.563 : en:Chapter 25
02:37:46.415 : en:Chapter 26
Семпл Релиз от:

Автор релиза: rondik



Скачать Австралия.Australia.(Баз.Лурман).[2008.драма.мелодрама.приключения.военный.история.BDRip-AVC].[Dub]+[AVO]+[Sub].torrent без регистрации
Золото ЗОЛОТАЯ РАЗДАЧА! СКАЧАННОЕ НЕ ЗАСЧИТЫВАЕТСЯ! Золото
Дата: Зарегистрирован   [ Тип: внутренний ] Как тут cкачать?
MAGNET ссылка
MAGNET ссылка


Скачать .torrent

19 KB

Статус: проверено DHT
Скачан: торрент - 120 раз, раздача полностью - 5 раз
Размер: 3,72 GB
Оценка:  - (Голосов: 0)
Поблагодарили: 1
Поделиться ссылкой на эту раздачу с друзьями:
В контактеFacebookОдноклассникиTwitterLivejournalМой МирLiveinternet
 

 
Показать сообщения:    


Вы не можете начинать темы
Вы не можете отвечать на сообщения
Вы не можете редактировать свои сообщения
Вы не можете удалять свои сообщения
Вы не можете голосовать в опросах
Вы не можете прикреплять файлы к сообщениям
Вы можете скачивать файлы