Loading...
Error

Скачать Я возьму тебя туда… / I'll Take You There (Эдриенн Шелли / Adrienne Shelly) [1999, Драма, мелодрама, комедия, DVDRip] [AVO] (Юрий Сербин) + [Original Eng] торрент без регистрации

 
Статистика раздачи
Размер:  1,55 GB   |    Скачан:  108 раз
Сидов:  1  [  0 KB/s  ]  
 
Автор Сообщение

leon030982

[] 

Я возьму тебя туда… / I'll Take You There
«life, love, lunacy»
Страна: США
Жанр: Драма, мелодрама, комедия
Год выпуска: 1999
Продолжительность: 01:33:09
Перевод: Авторский одноголосый закадровый (Юрий Сербин)
Cубтитры: нет
Оригинальная аудиодорожка: английская
Режиссер: Эдриенн Шелли / Adrienne Shelly
В ролях: Элли Шиди, Рег Роджерс, Памела Грэй, Лара Харрис, Джон Пайпер-Фергюсон, Элис Драммонд, Алан Норт, Эдриенн Шелли, Бен Верин, Майкл Эмерсон.

Описание: Самое важное в жизни Билла Бейтера - это жена Роза. Но наступил день и жена ушла от него к Рэю - его лучшему другу. Без нее жизнь для Билла закончилась.
Сестра Люси борется за счастье брата и знакомит его с девушкой Бернис. Бернис - эксцентрична, неуравновешенна и неординарна. Эта девушка - просто вулкан. Хватит ли у нее сил, чтобы вернуть Биллу прежний вкус к жизни?..



Исходник - DVD5 из раздачи oddeven с
Русская звуковая дорожка (с VHS) предоставлена Fikaloid-ом

Качество видео: DVDRip
Формат видео: AVI
Видео: 720x544 (1.32:1), 23.976 fps, XviD build 50 ~2049 kbps avg, 0.22 bit/pixel
Аудио 1: 48 kHz, MPEG Layer 3, 2 ch, ~128.00 kbps avg - русский
Аудио 2: 48 kHz, AC3 Dolby Digital, 2/0 (L,R) ch, ~192 kbps - английский
General
Complete name : D:\Public\I'll Take You There (1999) DVDRip Rus(Serbin)+Eng.avi
Format : AVI
Format/Info : Audio Video Interleave
File size : 1.55 GiB
Duration : 1h 33mn
Overall bit rate : 2 384 Kbps
Writing application : VirtualDubMod 1.5.10.2 (build 2542/release)
Writing library : VirtualDubMod build 2542/release
Video
ID : 0
Format : MPEG-4 Visual
Format profile : Advanced Simple@L5
Format settings, BVOP : 1
Format settings, QPel : No
Format settings, GMC : No warppoints
Format settings, Matrix : Default (H.263)
Codec ID : XVID
Codec ID/Hint : XviD
Duration : 1h 33mn
Bit rate : 2 050 Kbps
Width : 720 pixels
Height : 544 pixels
Display aspect ratio : 4:3
Frame rate : 23.976 fps
Color space : YUV
Chroma subsampling : 4:2:0
Bit depth : 8 bits
Scan type : Progressive
Compression mode : Lossy
Bits/(Pixel*Frame) : 0.218
Stream size : 1.33 GiB (86%)
Writing library : XviD 1.2.1 (UTC 2008-12-04)
Audio #1
ID : 1
Format : MPEG Audio
Format version : Version 1
Format profile : Layer 3
Codec ID : 55
Codec ID/Hint : MP3
Duration : 1h 33mn
Bit rate mode : Constant
Bit rate : 128 Kbps
Channel(s) : 2 channels
Sampling rate : 48.0 KHz
Compression mode : Lossy
Stream size : 85.3 MiB (5%)
Alignment : Aligned on interleaves
Interleave, duration : 42 ms (1.00 video frame)
Interleave, preload duration : 504 ms
Audio #2
ID : 2
Format : AC-3
Format/Info : Audio Coding 3
Mode extension : CM (complete main)
Codec ID : 2000
Duration : 1h 33mn
Bit rate mode : Constant
Bit rate : 192 Kbps
Channel(s) : 2 channels
Channel positions : Front: L R
Sampling rate : 48.0 KHz
Bit depth : 16 bits
Compression mode : Lossy
Stream size : 128 MiB (8%)
Alignment : Split accross interleaves
Interleave, duration : 42 ms (1.00 video frame)
Interleave, preload duration : 500 ms



Скачать Я.возьму.тебя.туда….I'll.Take.You.There.(Эдриенн.Шелли.Adrienne.Shelly).[1999.Драма.мелодрама.комедия.DVDRip].[AVO].(Юрий.Сербин).+.[Original.Eng].torrent без регистрации
Золото ЗОЛОТАЯ РАЗДАЧА! СКАЧАННОЕ НЕ ЗАСЧИТЫВАЕТСЯ! Золото
Дата: Зарегистрирован   [ Тип: внутренний ] Как тут cкачать?
MAGNET ссылка
MAGNET ссылка


Скачать .torrent

16 KB

Статус: проверено DHT
Скачан: торрент - 108 раз, раздача полностью - 3 раз
Размер: 1,55 GB
Оценка:  - (Голосов: 0)
Поблагодарили: 0
Поделиться ссылкой на эту раздачу с друзьями:
В контактеFacebookОдноклассникиTwitterLivejournalМой МирLiveinternet
 

 
Показать сообщения:    


Вы не можете начинать темы
Вы не можете отвечать на сообщения
Вы не можете редактировать свои сообщения
Вы не можете удалять свои сообщения
Вы не можете голосовать в опросах
Вы не можете прикреплять файлы к сообщениям
Вы можете скачивать файлы