Loading...
Error

Скачать Новый лист / A New Leaf (Элейн Мей) [1971, мелодрама, комедия, BDRip] [720p] [DVO] торрент без регистрации

 
Статистика раздачи
Размер:  6,63 GB   |    Скачан:  104 раза
Сидов:  1  [  0 KB/s  ]  
 
Автор Сообщение

Marsianka

[] 

Информация о фильме
Название: Новый лист
Оригинальное название: A New Leaf
Год выхода: 1971
Жанр: мелодрама, комедия
Режиссер: Элейн Мей
В ролях: Уолтер Мэттау, Элейн Мей, Джек Уэстон, Джордж Роуз, Джеймс Коко, Дорис Робертс, Рене Тейлор, Уильям Редфилд, Грэм Джарвис, Джесс Осуна, Дэвид Дойл, Фред Стюарт, Марк Гордон, Роуз Аррик

О фильме:
Растратив на удовольствия все свое состояние, плэйбой Генри Грэм озаботился поиском нового источника дохода. Из всех путей к богатству он выбрал самый короткий выгодную женитьбу. Жениться, а потом избавиться от супруги, отправив ее на тот свет, таков был его план. Но по иронии судьбы оказалось, что женщина-ученый, которой он уготовил роль жертвы, работает над проблемой бессмертия



Страна: США
Студия: Aries Productions, Elkins Entertainment, Elkins Productions International Corporation
Продолжительность: 01:42:26
Перевод: Профессиональный двухголосый

Файл
Кодек: MPEG-4 AVC
Качество: BDRip (720p)
Видео: 1280x720 at 23.976 fps, x264@L4.1, ~8122 kbps avg
Звук:
Аудио#1: Russian: 48 kHz, AC3, 2/0 (L,R) ch, ~192.00 kbps avg |Двухголосый закадровый|
Аудио#2: English: 48 kHz/16-bit, DTS 1.0, ~768.00 kbps avg

Общее
Уникальный идентификатор : 232061925951154929194545056448158938180 (0xAE95804F920FAF0BBDC8A5A55574B444)
Полное имя : A. New. Leaf.1971.720p.Bluray.Rus.Eng.HDCLUB.mkv
Формат : Matroska
Версия формата : Version 4 / Version 2
Размер файла : 6,63 Гбайт
Продолжительность : 1 ч. 42 м.
Общий поток : 9266 Кбит/сек
Дата кодирования : UTC 2013-03-14 07:24:52
Программа кодирования : mkvmerge v6.1.0 ('Old Devil') built on Mar 2 2013 14:32:37
Библиотека кодирования : libebml v1.3.0 + libmatroska v1.4.0

Видео
Идентификатор : 1
Формат : AVC
Формат/Информация : Advanced Video Codec
Профиль формата : High@L4.1
Параметр CABAC формата : Да
Параметр ReFrames формата : 12 кадров
Идентификатор кодека : V_MPEG4/ISO/AVC
Продолжительность : 1 ч. 42 м.
Битрейт : 8122 Кбит/сек
Ширина : 1280 пикселей
Высота : 720 пикселей
Соотношение сторон : 16:9
Режим частоты кадров : Постоянный
Частота кадров : 23,976 кадра/сек
Цветовое пространство : YUV
Субдискретизация насыщенности : 4:2:0
Битовая глубина : 8 бит
Тип развёртки : Прогрессивная
Бит/(Пиксели*Кадры) : 0.368
Размер потока : 5,81 Гбайт (88%)
Библиотека кодирования : x264 core 130 r2273kMod b3065e6
Настройки программы : cabac=1 / ref=12 / deblock=1:-3:-3 / analyse=0x3:0x113 / me=esa / subme=11 / psy=1 / fade_compensate=0.00 / psy_rd=0.90:0.00 / mixed_ref=1 / me_range=24 / chroma_me=1 / trellis=2 / 8x8dct=1 / cqm=0 / deadzone=21,11 / fast_pskip=0 / chroma_qp_offset=-2 / threads=6 / lookahead_threads=1 / sliced_threads=0 / nr=0 / decimate=1 / interlaced=0 / bluray_compat=0 / constrained_intra=0 / bframes=12 / b_pyramid=2 / b_adapt=2 / b_bias=0 / direct=3 / weightb=1 / open_gop=0 / weightp=2 / keyint=250 / keyint_min=23 / scenecut=40 / intra_refresh=0 / rc_lookahead=40 / rc=crf / mbtree=0 / crf=18.3500 / qcomp=0.70 / qpmin=10 / qpmax=51 / qpstep=4 / vbv_maxrate=50000 / vbv_bufsize=62000 / crf_max=0.0 / nal_hrd=none / ip_ratio=1.40 / pb_ratio=1.30 / aq=1:0.80
Язык : English
Default : Да
Forced : Нет
Коэффициенты матрицы : BT.709

Аудио #1
Идентификатор : 2
Формат : AC-3
Формат/Информация : Audio Coding 3
Профиль формата : Dolby Digital
Расширение режима : CM (complete main)
Параметр Endianness формата : Big
Идентификатор кодека : A_AC3
Продолжительность : 1 ч. 42 м.
Вид битрейта : Постоянный
Битрейт : 192 Кбит/сек
Каналы : 2 канала
Расположение каналов : Front: L R
Частота : 48,0 КГц
Битовая глубина : 16 бит
Метод сжатия : С потерями
Размер потока : 141 Мбайт (2%)
Заголовок : Двухголосый закадровый
Язык : Russian
Default : Да
Forced : Нет

Аудио #2
Идентификатор : 3
Формат : DTS
Формат/Информация : Digital Theater Systems
Режим : 16
Параметр Endianness формата : Big
Идентификатор кодека : A_DTS
Продолжительность : 1 ч. 42 м.
Вид битрейта : Постоянный
Битрейт : 768 Кбит/сек
Каналы : 1 канал
Расположение каналов : Front: C
Частота : 48,0 КГц
Битовая глубина : 16 бит
Метод сжатия : С потерями
Размер потока : 563 Мбайт (8%)
Язык : English
Default : Нет
Forced : Нет
Релиз от:



Скачать Новый.лист.A.New.Leaf.(Элейн.Мей).[1971.мелодрама.комедия.BDRip].[720p].[DVO].torrent без регистрации
Золото ЗОЛОТАЯ РАЗДАЧА! СКАЧАННОЕ НЕ ЗАСЧИТЫВАЕТСЯ! Золото
Дата: Зарегистрирован   [ Тип: внутренний ] Как тут cкачать?
MAGNET ссылка
MAGNET ссылка


Скачать .torrent

17 KB

Статус: проверено DHT
Скачан: торрент - 104 раз, раздача полностью - 5 раз
Размер: 6,63 GB
Оценка:  - (Голосов: 0)
Поблагодарили: 2
Поделиться ссылкой на эту раздачу с друзьями:
В контактеFacebookОдноклассникиTwitterLivejournalМой МирLiveinternet
 

 
Показать сообщения:    


Вы не можете начинать темы
Вы не можете отвечать на сообщения
Вы не можете редактировать свои сообщения
Вы не можете удалять свои сообщения
Вы не можете голосовать в опросах
Вы не можете прикреплять файлы к сообщениям
Вы можете скачивать файлы