Loading...
Error

Скачать Тринадцатый / XIII: The Series (сезон 02) (Дуан Кларк, Ален Тасма) [2011, боевик, триллер, криминал, детектив, HDRip] [DVO (AXN Sci-Fi)] торрент без регистрации

 
Статистика раздачи
Размер:  9,6 GB   |    Скачан:  170 раз
Сидов:  1  [  0 KB/s  ]  
 
Автор Сообщение

МихаНЕзатор

[] 

Информация о фильме
Название: Тринадцатый
Оригинальное название: XIII: The Series
Год выхода: 2011
Производство: Канада, Франция
Жанр: боевик, триллер, криминал, детектив
Режиссер: Дуан Кларк, Ален Тасма
В ролях: Стюарт Таунсенд, Аиша Тайлер, Вирджиния Ледуайен, Грег Брайк, Стивен МакХэтти, Паулино Нюнс, Катерина Мурино, Тед Атертон, Дэвид Бронфман, Хьюберт Бурдер

Описание: Первая в США женщина-президент убита метким снайперским выстрелом во время выступления в День ветеранов. Убийца не найден. Вскоре после этого в лесу находят таинственного парашютиста. Он ранен и не помнит абсолютно ничего из своего прошлого. На его груди загадочная татуировка «XIII». Теперь молодому человеку предстоит понять кто он такой и попытаться раскрыть правительственный заговор...

Продолжительность: ~ 45 мин
Перевод: Профессиональный двухголосый закадровый (AXN Sci-Fi Россия)

Файл
Качество: HDRip
Формат: AVI
Видео кодек: XviD
Аудио кодек: MP3
Видео: 720x400 (1.80:1), 25 fps, XviD build 50 ~1998 kbps avg, 0.28 bit/pixel
Аудио Rus: 48 kHz, AC3 Dolby Digital, 2/0 (L,R) ch, ~192 kbps
Аудио Eng: 48 kHz, AC3 Dolby Digital, 2/0 (L,R) ch, ~192 kbps
Русские субтитры: нет



21.04.2013 г. торент обновлён, добавлена 10-11 серия!

01. Phoenix
02. Rampage
03. Defender
04. Tempest
05.Joust
06. Gauntlet
07. Breakout
08. Mousetrap
09. Pong
10. Black Widow
11. Punchout
12. Berzerk
13. Battlezone
General
Complete name : D:СериалXIII.s02e01.rus.eng.avi
Format : AVI
Format/Info : Audio Video Interleave
File size : 797 MiB
Duration : 46mn 29s
Overall bit rate : 2 398 Kbps
Writing application : VirtualDubMod 1.5.10.2 (build 2540/release)
Writing library : VirtualDubMod build 2540/release

Video
ID : 0
Format : MPEG-4 Visual
Format profile : Advanced Simple@L5
Format settings, BVOP : 1
Format settings, QPel : No
Format settings, GMC : No warppoints
Format settings, Matrix : Default (MPEG)
Codec ID : XVID
Codec ID/Hint : XviD
Duration : 46mn 29s
Bit rate : 2 000 Kbps
Width : 720 pixels
Height : 400 pixels
Display aspect ratio : 16:9
Frame rate : 25.000 fps
Color space : YUV
Chroma subsampling : 4:2:0
Bit depth : 8 bits
Scan type : Progressive
Compression mode : Lossy
Bits/(Pixel*Frame) : 0.278
Stream size : 665 MiB (83%)
Writing library : XviD 65

Audio #1
ID : 1
Format : AC-3
Format/Info : Audio Coding 3
Mode extension : CM (complete main)
Format settings, Endianness : Big
Codec ID : 2000
Duration : 46mn 28s
Bit rate mode : Constant
Bit rate : 192 Kbps
Channel(s) : 2 channels
Channel positions : Front: L R
Sampling rate : 48.0 KHz
Bit depth : 16 bits
Compression mode : Lossy
Stream size : 63.8 MiB (8%)
Alignment : Split accross interleaves
Interleave, duration : 40 ms (1.00 video frame)
Interleave, preload duration : 500 ms

Audio #2
ID : 2
Format : AC-3
Format/Info : Audio Coding 3
Mode extension : CM (complete main)
Format settings, Endianness : Big
Codec ID : 2000
Duration : 46mn 29s
Bit rate mode : Constant
Bit rate : 192 Kbps
Channel(s) : 2 channels
Channel positions : Front: L R
Sampling rate : 48.0 KHz
Bit depth : 16 bits
Compression mode : Lossy
Stream size : 63.8 MiB (8%)
Alignment : Split accross interleaves
Interleave, duration : 40 ms (1.00 video frame)
Interleave, preload duration : 500 ms



Скачать Тринадцатый.XIII.The.Series.(сезон.02).(Дуан.Кларк.Ален.Тасма).[2011.боевик.триллер.криминал.детектив.HDRip].[DVO.(AXN.Sci-Fi)].torrent без регистрации
Золото ЗОЛОТАЯ РАЗДАЧА! СКАЧАННОЕ НЕ ЗАСЧИТЫВАЕТСЯ! Золото
Дата: Зарегистрирован   [ Тип: внутренний ] Как тут cкачать?
MAGNET ссылка
MAGNET ссылка


Скачать .torrent

25 KB

Статус: проверено DHT
Скачан: торрент - 170 раз, раздача полностью - 45 раз
Размер: 9,6 GB
Оценка:  - (Голосов: 0)
Поблагодарили: 4
Поделиться ссылкой на эту раздачу с друзьями:
В контактеFacebookОдноклассникиTwitterLivejournalМой МирLiveinternet
 

 

МихаНЕзатор

[] 

Раздача обновлена
 
Показать сообщения:    


Вы не можете начинать темы
Вы не можете отвечать на сообщения
Вы не можете редактировать свои сообщения
Вы не можете удалять свои сообщения
Вы не можете голосовать в опросах
Вы не можете прикреплять файлы к сообщениям
Вы можете скачивать файлы