Loading...
Error

Скачать В диких условиях / К дикой природе / Into the Wild (Шон Пенн) [2007, драма, приключения, биография, BDRip-AVC] [MVO]+[AVO]+[DVO]+[Sub] торрент без регистрации

 
Статистика раздачи
Размер:  3,75 GB   |    Скачан:  138 раз
Сидов:  1  [  0 KB/s  ]  
 
Автор Сообщение

Marsianka

[] 

Информация о фильме
Название: В диких условиях
Оригинальное название: Into the Wild
Год выхода: 2007
Жанр: драма, приключения, биография
Режиссер: Шон Пенн / Sean Penn
В ролях: Эмиль Хирш, Марша Гэй Харден, Уильям Хёрт, Джена Мэлоун, Брайан Х. Дьеркер, Кэтрин Кинер, Винс Вон, Кристен Стюарт, Хэл Холбрук, Jim Galien

О фильме: После окончания Университета Эмори один из его ведущих студентов и атлетов Кристофер МакКэндлесс оставляет все свое имущество, отдает накопленные за время учебы 24 тыс. долларов в благотворительный фонд, и отправляется автостопом на Аляску, чтобы окунуться в дикую природу. По дороге Кристофер знакомится с разными людьми, так или иначе влияющими на его жизнь.



Выпущено: США, Art Linson Productions, Into the Wild, Paramount Vantage, River Road Entertainment
Продолжительность: 02:28:07
Перевод: Профессиональный многоголосый (НТВ+), авторский одноголосый (Юрий Немахов), профессиональный двухголосый
Субтитры: Русские
Дата релиза: 15.03.2013

Файл
Кодек: H264
Качество: BDRip (AVC) (Blu-Ray Remux (1080p))
Видео: MPEG-4 AVC, 1899 Кбит/с, 1024х426, 23,976 кадр/с
Звук: Профессиональный многоголосый (НТВ+), авторский одноголосый (Юрий Немахов) - (AC3, 6 ch, 448 Кбит/с), профессиональный двухголосый - (AC3, 6 ch, 384 Кбит/с), английский (AC3, 6 ch, 448 Кбит/с)

Семпл
Общее
Уникальный идентификатор : 188583318299461715429994552014380787102 (0x8DDFD372EEC755C7B6B35A0D5844E59E)
Полное имя : D:4V.dikih.uslovijah.2007.x264.BDRip.(AVC).ExKinoRay.mkv
Формат : Matroska
Размер файла : 3,75 Гбайт
Продолжительность : 2 ч. 28 м.
Общий поток : 3629 Кбит/сек
Название фильма : V.dikih.uslovijah.2007.x264.BDRip.(AVC).ExKinoRay
Дата кодирования : UTC 2013-03-15 16:34:17
Программа кодирования : mkvmerge v4.0.0 ('The Stars were mine') сборка от Jun 6 2010 16:18:42
Библиотека кодирования : libebml v1.0.0 + libmatroska v1.0.0

Видео
Идентификатор : 1
Формат : AVC
Формат/Информация : Advanced Video Codec
Профиль формата : High@L4.1
Параметр CABAC формата : Да
Параметр ReFrames формата : 8 кадров
Идентификатор кодека : V_MPEG4/ISO/AVC
Продолжительность : 2 ч. 28 м.
Битрейт : 1899 Кбит/сек
Ширина : 1024 пикс.
Высота : 426 пикс.
Соотношение сторон : 2,40:1
Частота кадров : 23,976 кадр/сек
Цветовое пространство : YUV
Подвыборка цветности : 4:2:0
Битовая глубина : 8 бит
Тип развёртки : Прогрессивная
Бит/(Пиксели*Кадры) : 0.182
Размер потока : 1,89 Гбайт (50%)
Заголовок : Rip by Enigma-Vladislav71
Библиотека кодирования : x264 core 129 r2245 bc13772
Настройки программы : cabac=1 / ref=8 / deblock=1:-2:-2 / analyse=0x3:0x133 / me=umh / subme=11 / psy=1 / psy_rd=1.00:0.00 / mixed_ref=1 / me_range=48 / chroma_me=1 / trellis=2 / 8x8dct=1 / cqm=0 / deadzone=21,11 / fast_pskip=0 / chroma_qp_offset=-2 / threads=3 / lookahead_threads=1 / sliced_threads=0 / nr=0 / decimate=0 / interlaced=0 / bluray_compat=0 / constrained_intra=0 / bframes=8 / b_pyramid=2 / b_adapt=2 / b_bias=0 / direct=3 / weightb=1 / open_gop=0 / weightp=2 / keyint=240 / keyint_min=23 / scenecut=40 / intra_refresh=0 / rc_lookahead=40 / rc=2pass / mbtree=1 / bitrate=1899 / ratetol=1.0 / qcomp=0.60 / qpmin=10 / qpmax=51 / qpstep=4 / cplxblur=20.0 / qblur=0.5 / ip_ratio=1.40 / aq=2:1.00
Язык : English

Аудио #1
Идентификатор : 2
Формат : AC-3
Формат/Информация : Audio Coding 3
Расширение режима : CM (complete main)
Идентификатор кодека : A_AC3
Продолжительность : 2 ч. 28 м.
Вид битрейта : Постоянный
Битрейт : 448 Кбит/сек
Каналы : 6 каналов
Расположение каналов : Front: L C R, Side: L R, LFE
Частота : 48,0 КГц
Битовая глубина : 16 бит
Метод сжатия : С потерями
Размер потока : 475 Мбайт (12%)
Заголовок : Профессиональный многоголосый (НТВ+)
Язык : Russian

Аудио #2
Идентификатор : 3
Формат : AC-3
Формат/Информация : Audio Coding 3
Расширение режима : CM (complete main)
Идентификатор кодека : A_AC3
Продолжительность : 2 ч. 28 м.
Вид битрейта : Постоянный
Битрейт : 384 Кбит/сек
Каналы : 6 каналов
Расположение каналов : Front: L C R, Side: L R, LFE
Частота : 48,0 КГц
Битовая глубина : 16 бит
Метод сжатия : С потерями
Размер потока : 407 Мбайт (11%)
Заголовок : Профессиональный двухголосый
Язык : Russian

Аудио #3
Идентификатор : 4
Формат : AC-3
Формат/Информация : Audio Coding 3
Расширение режима : CM (complete main)
Идентификатор кодека : A_AC3
Продолжительность : 2 ч. 28 м.
Вид битрейта : Постоянный
Битрейт : 448 Кбит/сек
Каналы : 6 каналов
Расположение каналов : Front: L C R, Side: L R, LFE
Частота : 48,0 КГц
Битовая глубина : 16 бит
Метод сжатия : С потерями
Размер потока : 475 Мбайт (12%)
Заголовок : Авторский одноголосый (Юрий Немахов)
Язык : Russian

Аудио #4
Идентификатор : 5
Формат : AC-3
Формат/Информация : Audio Coding 3
Расширение режима : CM (complete main)
Идентификатор кодека : A_AC3
Продолжительность : 2 ч. 28 м.
Вид битрейта : Постоянный
Битрейт : 448 Кбит/сек
Каналы : 6 каналов
Расположение каналов : Front: L C R, Side: L R, LFE
Частота : 48,0 КГц
Битовая глубина : 16 бит
Метод сжатия : С потерями
Размер потока : 475 Мбайт (12%)
Заголовок : Английский
Язык : English

Текст
Идентификатор : 6
Формат : UTF-8
Идентификатор кодека : S_TEXT/UTF8
Идентификатор кодека/Информация : UTF-8 Plain Text
Язык : Russian

Меню
00:00:00.000 : en:Chapter 01
00:08:04.233 : en:Chapter 02
00:13:36.106 : en:Chapter 03
00:21:29.204 : en:Chapter 04
00:28:02.097 : en:Chapter 05
00:38:01.946 : en:Chapter 06
00:42:52.820 : en:Chapter 07
00:52:14.881 : en:Chapter 08
01:02:39.714 : en:Chapter 09
01:09:46.807 : en:Chapter 10
01:14:19.079 : en:Chapter 11
01:22:10.675 : en:Chapter 12
01:30:11.364 : en:Chapter 13
01:45:47.674 : en:Chapter 14
01:51:37.023 : en:Chapter 15
02:04:15.072 : en:Chapter 16
02:15:18.693 : en:Chapter 17
Релиз от:

Авторы релиза:



Скачать В.диких.условиях.К.дикой.природе.Into.the.Wild.(Шон.Пенн).[2007.драма.приключения.биография.BDRip-AVC].[MVO]+[AVO]+[DVO]+[Sub].torrent без регистрации
Золото ЗОЛОТАЯ РАЗДАЧА! СКАЧАННОЕ НЕ ЗАСЧИТЫВАЕТСЯ! Золото
Дата: Зарегистрирован   [ Тип: внутренний ] Как тут cкачать?
MAGNET ссылка
MAGNET ссылка


Скачать .torrent

19 KB

Статус: проверено DHT
Скачан: торрент - 138 раз, раздача полностью - 186 раз
Размер: 3,75 GB
Оценка:  4 (Голосов: 1)
Поблагодарили: 1
Поделиться ссылкой на эту раздачу с друзьями:
В контактеFacebookОдноклассникиTwitterLivejournalМой МирLiveinternet
 

 
Показать сообщения:    


Вы не можете начинать темы
Вы не можете отвечать на сообщения
Вы не можете редактировать свои сообщения
Вы не можете удалять свои сообщения
Вы не можете голосовать в опросах
Вы не можете прикреплять файлы к сообщениям
Вы можете скачивать файлы