Loading...
Error

Скачать Библия / The Bible (сезон 01) (Криспин Рис, Тони Митчелл, Кристофер Спенсер) [2013, драма, HDTVRip, BDRip] [720p] [MVO (BaibaKo)] торрент без регистрации

 
Статистика раздачи
Размер:  22,21 GB   |    Скачан:  4344 раза

Полного источника не было: 21 минута

 
Автор Сообщение

МихаНЕзатор

[] 

Название: Библия
Оригинальное название: The Bible
Год выпуска: 2013
Жанр: Драма
Режиссер: Криспин Рис, Тони Митчелл, Кристофер Спенсер
В ролях: Диого Моргадо, Дауд Шах, Пол Брайтвелл, Рома Дауни, Грег Хикс, Себастьян Кнапп, Эмбер Роуз Рева, Адриан Шиллер, Эндрю Брук, Луиз Деламер

Описание: Самая масштабная экранизация библейских сюжетов, как утверждают авторы, снята в духе современных исторических сериалов c добавлением к живым сценам - компьютерной графики. Истории о Ноевом ковчеге, исходе из Египта под предводительством Моисея, рождении, смерти и воскресении Иисуса. Сериал состоит из 10 ключевых повествований. Начиная от книги Бытие и заканчивая книгой Откровение. Воссоздать и снять истории Ветхого и Нового заветов решился 43-летний британский продюсер Марк Барнетт с супругой. Съемки стоимостью в 22 миллиона долларов прошли на Ближнем Востоке и собрали актеров со всего мира (Самсон из африканской диаспоры, Давид из Ирландии, Иисус из Португалии, и т.д.). В качестве консультантов были привлечены десятки пасторов и ученых.



Страна: США
Продолжительность: 02 x ~ 00:45:00
Перевод: Профессиональный (многоголосый, закадровый) - Baibako
Субтитры: Нет

Перевод: Янина Галицкая
Озвучка: Лира Грим, Ольга Мотрич, Сергей Корчак и Виталий Ткаченко
Монтаж: Павел Дежин


Качество: HDTVRip 720р
Формат: MKV
Видео: MPEG-4 AVC, ~ 4433 Кбит/с, 1280x720
Аудио rus: АС3, 6 ch, 384 Кбит/с
Аудио eng: АС3, 6 ch, 384 Кбит/с

Релиз от:

17.06.2013 г. торент обновлён, добавлена 9-10 серия!

01. В начале / In the Beginning
02. Исход / Exodus
03. Земля Обетованная / Homeland
04. Царство / Kingdom
05. Survival
06. Hope
07. Mission
08. Betrayal
09. Passion
10. Courage
General
Unique ID : 195984076829190288429084442043030471172 (0x937129041A2142B493D3C004F7848204)
Complete name : C:NewOutThe.Bible.s01e01.HDTV720p.Rus.Eng.BaibaKo.tv.mkv
Format : Matroska
File size : 1.55 GiB
Duration : 41mn 56s
Overall bit rate : 5 306 Kbps
Movie name : BaibaKo.tv presents - Библия 1х01 В Начале
Encoded date : UTC 2010-02-22 21:41:31
Writing application : mkvmerge v5.9.0 ('On The Loose') built on Dec 9 2012 15:37:01
Writing library : libebml v1.3.0 + libmatroska v1.4.0

Video
ID : 1
Format : AVC
Format/Info : Advanced Video Codec
Format profile : High@L4.1
Format settings, CABAC : Yes
Format settings, ReFrames : 5 frames
Codec ID : V_MPEG4/ISO/AVC
Duration : 41mn 56s
Bit rate : 4 433 Kbps
Width : 1 280 pixels
Height : 720 pixels
Display aspect ratio : 16:9
Frame rate : 25.000 fps
Color space : YUV
Chroma subsampling : 4:2:0
Bit depth : 8 bits
Scan type : Progressive
Bits/(Pixel*Frame) : 0.192
Stream size : 1.30 GiB (84%)
Writing library : x264 core 130 r2273 b3065e6
Encoding settings : cabac=1 / ref=5 / deblock=1:0:0 / analyse=0x3:0x113 / me=umh / subme=8 / psy=1 / psy_rd=1.00:0.00 / mixed_ref=1 / me_range=16 / chroma_me=1 / trellis=1 / 8x8dct=1 / cqm=0 / deadzone=21,11 / fast_pskip=1 / chroma_qp_offset=-2 / threads=12 / lookahead_threads=2 / sliced_threads=0 / nr=0 / decimate=1 / interlaced=0 / bluray_compat=0 / constrained_intra=0 / bframes=3 / b_pyramid=2 / b_adapt=2 / b_bias=0 / direct=3 / weightb=1 / open_gop=0 / weightp=2 / keyint=250 / keyint_min=25 / scenecut=40 / intra_refresh=0 / rc_lookahead=50 / rc=crf / mbtree=1 / crf=18.0 / qcomp=0.60 / qpmin=0 / qpmax=69 / qpstep=4 / ip_ratio=1.40 / aq=1:1.00
Language : English
Matrix coefficients : BT.709-5, BT.1361, IEC 61966-2-4 709, SMPTE RP177

Audio #1
ID : 2
Format : AC-3
Format/Info : Audio Coding 3
Mode extension : CM (complete main)
Codec ID : A_AC3
Duration : 41mn 56s
Bit rate mode : Constant
Bit rate : 384 Kbps
Channel(s) : 6 channels
Channel positions : Front: L C R, Side: L R, LFE
Sampling rate : 48.0 KHz
Bit depth : 16 bits
Compression mode : Lossy
Stream size : 115 MiB (7%)
Title : Rus BaibaKo.tv DD5.1
Language : Russian

Audio #2
ID : 3
Format : AC-3
Format/Info : Audio Coding 3
Mode extension : CM (complete main)
Codec ID : A_AC3
Duration : 41mn 56s
Bit rate mode : Constant
Bit rate : 384 Kbps
Channel(s) : 6 channels
Channel positions : Front: L C R, Side: L R, LFE
Sampling rate : 48.0 KHz
Bit depth : 16 bits
Compression mode : Lossy
Stream size : 115 MiB (7%)
Title : Eng DD5.1
Language : English



Скачать Библия.The.Bible.(сезон.01).(Криспин.Рис.Тони.Митчелл.Кристофер.Спенсер).[2013.драма.HDTVRip.BDRip].[720p].[MVO.(BaibaKo)].torrent без регистрации
Золото ЗОЛОТАЯ РАЗДАЧА! СКАЧАННОЕ НЕ ЗАСЧИТЫВАЕТСЯ! Золото
Дата: Зарегистрирован   [ Тип: внутренний ] Как тут cкачать?
MAGNET ссылка
MAGNET ссылка


Скачать .torrent

57 KB

Статус: проверено DHT
Скачан: торрент - 4344 раз, раздача полностью - 22 раз
Размер: 22,21 GB
Оценка:  5 (Голосов: 2)
Поблагодарили: 5
Поделиться ссылкой на эту раздачу с друзьями:
В контактеFacebookОдноклассникиTwitterLivejournalМой МирLiveinternet
 

 

st_Father

[] 

Вопрос к релизеру: есть ли в четвертой серии англ дорожка ??
В третьей не было. Не возможно смотреть с этим убогим переводом. Оригинал - отлично.
Просьба на будущее так же оставлять анг дорожку.
Так есть ли в четвертой серии англ дорожка ??
 

МихаНЕзатор

[] 

st_Father писал(а):

Вопрос к релизеру: есть ли в четвертой серии англ дорожка ??
В третьей не было. Не возможно смотреть с этим убогим переводом. Оригинал - отлично.
Просьба на будущее так же оставлять анг дорожку.
Так есть ли в четвертой серии англ дорожка ??
Я автор раздачи, а не релизер, поэтому точно сказать не могу, но судя по описанию присутствуют обе дороги, возможно надо поэксперемнтировать с плеерами.
 

st_Father

[] 

Первые две серии - англ дорога есть. 3-4 нет. Смотреть с таким переводом - только время терять.
 

МихаНЕзатор

[] 

Раздача обновлена
 
Показать сообщения:    


Вы не можете начинать темы
Вы не можете отвечать на сообщения
Вы не можете редактировать свои сообщения
Вы не можете удалять свои сообщения
Вы не можете голосовать в опросах
Вы не можете прикреплять файлы к сообщениям
Вы можете скачивать файлы