Loading...
Error

Скачать Лунатики / Sleepwalkers (Мик Гэррис) [1992, ужасы, триллер, BDRip] [1080p] [MVO]x2+[AVO]x2+[Оригинал]+[Sub] торрент без регистрации

 
Статистика раздачи
Размер:  9,29 GB   |    Скачан:  105 раз
Сидов:  1  [  0 KB/s  ]  
 
Автор Сообщение

Marsianka

[] 

Информация о фильме
Название: Лунатики
Оригинальное название: Sleepwalkers
Год выхода: 1992
Жанр: ужасы, триллер
Режиссер: Мик Гэррис
В ролях: Брайан Краузе, Элис Крайдж, Мэдчен Эмик, Джим Хэйни, Синди Пикетт, Рон Перлман, Дэн Мартин, Гленн Шэдикс, Синтия Гаррис, Монти Бейн, Джон Лэндис, Джо Данте, Стивен Кинг, Клайв Баркер, Лиман Уорд, Тоуб Хупер, Фрэнк Новак, Расти Швиммер, Ричард Пенн, Эрни Лайвли, Боджесси Кристофер, Стюарт Чарно, Дайан Дилэйно, Роджер Нолан, Джои Ареско, Майкл Рид МакКэй, Чарльз Кроувэлл, Дональд Питерсен

О фильме:
Чарльз Брэйди и его мать - таинственное порождение темных сил: они оборотни. Их любимая добыча молодые девственницы, дарующие им жизненную энергию. Но выбранная ими новая жертва оказывается сильнее и изобретательнее своих преследователей. Школьница Таня Робертсон находит оружие против кровавой семейки. Больше всего на свете они боятся кошачьих когтей



Страна: США
Студия: Columbia Pictures Corporation, Ion Pictures
Продолжительность: 01:29:11
Перевод: Профессиональный (многоголосый закадровый) (Видеосервис) + профессиональный (многоголосый закадровый) + авторский (одноголосый) (А. Гаврилов) + авторский (одноголосый) (Ю. Живов) + оригинал

Файл
Кодек: H.264
Качество: BDRip 1080p
Видео: MPEG-4 AVC, 12.0 Мбит/с, 1920x1040, 23.976 кадр/с
Звук:
Русский (DTS, 2 ch, 512 Кбит/с) / Профессиональный (многоголосый закадровый) (Видеосервис)
Русский (АС3, 2 ch, 192 Кбит/с) / Профессиональный (многоголосый закадровый)
Русский (АС3, 2 ch, 192 Кбит/с) / Авторский (одноголосый) (А. Гаврилов)
Русский (DTS, 2 ch, 512 Кбит/с) / Авторский (одноголосый) (Ю. Живов)
Английский (DTS, 2 ch, 1510 Кбит/с)
Субтитры: Английские, испанские

Семпл
General
Unique ID : 251985596252152159503276728665348700059 (0xBD92A918FE7B2354B7FF18B76822F79B)
Complete name : D:2Films DLunatiki.1992.x264.BDRip.1080p.MediaClub.mkv
Format : Matroska
Format version : Version 2
File size : 9.29 GiB
Duration : 1h 29mn
Overall bit rate : 14.9 Mbps
Movie name : = MediaClub = rip by Lefevr
Encoded date : UTC 2013-03-16 12:24:20
Writing application : mkvmerge v5.4.0 ('Piper') built on Mar 10 2012 13:34:39
Writing library : libebml v1.2.3 + libmatroska v1.3.0

Video
ID : 1
Format : AVC
Format/Info : Advanced Video Codec
Format profile : High@L4.1
Format settings, CABAC : Yes
Format settings, ReFrames : 4 frames
Codec ID : V_MPEG4/ISO/AVC
Duration : 1h 29mn
Bit rate : 12.0 Mbps
Width : 1 920 pixels
Height : 1 040 pixels
Display aspect ratio : 16:9
Frame rate : 23.976 fps
Color space : YUV
Chroma subsampling : 4:2:0
Bit depth : 8 bits
Scan type : Progressive
Bits/(Pixel*Frame) : 0.251
Stream size : 7.28 GiB (78%)
Title : Lunatiki.1992.x264.BDRip.1080p.MediaClub
Writing library : x264 core 125 r2208 d9d2288
Encoding settings : cabac=1 / ref=4 / deblock=1:-2:-2 / analyse=0x3:0x133 / me=umh / subme=11 / psy=1 / psy_rd=1.00:0.20 / mixed_ref=1 / me_range=32 / chroma_me=1 / trellis=2 / 8x8dct=1 / cqm=0 / deadzone=21,11 / fast_pskip=0 / chroma_qp_offset=-3 / threads=6 / lookahead_threads=1 / sliced_threads=0 / nr=0 / decimate=0 / interlaced=0 / bluray_compat=0 / constrained_intra=0 / bframes=8 / b_pyramid=2 / b_adapt=2 / b_bias=0 / direct=3 / weightb=1 / open_gop=0 / weightp=2 / keyint=240 / keyint_min=23 / scenecut=40 / intra_refresh=0 / rc=2pass / mbtree=0 / bitrate=12000 / ratetol=1.0 / qcomp=0.60 / qpmin=0 / qpmax=69 / qpstep=4 / cplxblur=20.0 / qblur=0.5 / ip_ratio=1.40 / pb_ratio=1.30 / aq=1:1.00
Language : English
Default : Yes
Forced : No

Audio #1
ID : 2
Format : DTS
Format/Info : Digital Theater Systems
Codec ID : A_DTS
Duration : 1h 29mn
Bit rate mode : Constant
Bit rate : 512 Kbps
Channel(s) : 2 channels
Channel positions : Front: L R
Sampling rate : 48.0 KHz
Bit depth : 16 bits
Compression mode : Lossy
Stream size : 327 MiB (3%)
Title : TRACK_01_MVO_RUS_VIDESERVIS
Language : Russian
Default : Yes
Forced : No

Audio #2
ID : 3
Format : AC-3
Format/Info : Audio Coding 3
Mode extension : CM (complete main)
Codec ID : A_AC3
Duration : 1h 29mn
Bit rate mode : Constant
Bit rate : 192 Kbps
Channel(s) : 2 channels
Channel positions : Front: L R
Sampling rate : 48.0 KHz
Bit depth : 16 bits
Compression mode : Lossy
Stream size : 122 MiB (1%)
Title : TRACK_02_MVO_RUS
Language : Russian
Default : No
Forced : No

Audio #3
ID : 4
Format : AC-3
Format/Info : Audio Coding 3
Mode extension : CM (complete main)
Codec ID : A_AC3
Duration : 1h 29mn
Bit rate mode : Constant
Bit rate : 192 Kbps
Channel(s) : 2 channels
Channel positions : Front: L R
Sampling rate : 48.0 KHz
Bit depth : 16 bits
Compression mode : Lossy
Stream size : 122 MiB (1%)
Title : TRACK_03_AVO_Gavrilov_RUS
Language : Russian
Default : No
Forced : No

Audio #4
ID : 5
Format : DTS
Format/Info : Digital Theater Systems
Codec ID : A_DTS
Duration : 1h 29mn
Bit rate mode : Constant
Bit rate : 512 Kbps
Channel(s) : 2 channels
Channel positions : Front: L R
Sampling rate : 48.0 KHz
Bit depth : 16 bits
Compression mode : Lossy
Stream size : 327 MiB (3%)
Title : TRACK_04_AVO_Zhivov_RUS
Language : Russian
Default : No
Forced : No

Audio #5
ID : 6
Format : DTS
Format/Info : Digital Theater Systems
Codec ID : A_DTS
Duration : 1h 29mn
Bit rate mode : Constant
Bit rate : 1 510 Kbps
Channel(s) : 2 channels
Channel positions : Front: L R
Sampling rate : 48.0 KHz
Bit depth : 16 bits
Compression mode : Lossy
Stream size : 963 MiB (10%)
Title : TRACK_05_ORIGINAL_ENG
Language : English
Default : No
Forced : No

Text #1
ID : 7
Format : UTF-8
Codec ID : S_TEXT/UTF8
Codec ID/Info : UTF-8 Plain Text
Title : TEXT_01_SUB_ENG
Language : English
Default : No
Forced : No

Text #2
ID : 8
Format : UTF-8
Codec ID : S_TEXT/UTF8
Codec ID/Info : UTF-8 Plain Text
Title : TEXT_02_SUB_SPA
Language : Spanish
Default : No
Forced : No

Menu
00:00:00.000 : en:Chapter 01
00:05:36.836 : en:Chapter 02
00:10:45.227 : en:Chapter 03
00:16:34.159 : en:Chapter 04
00:20:35.150 : en:Chapter 05
00:27:05.581 : en:Chapter 06
00:30:24.239 : en:Chapter 07
00:36:44.160 : en:Chapter 08
00:43:27.855 : en:Chapter 09
00:49:09.237 : en:Chapter 10
00:54:17.545 : en:Chapter 11
01:00:03.308 : en:Chapter 12
01:03:28.763 : en:Chapter 13
01:09:49.810 : en:Chapter 14
01:14:32.009 : en:Chapter 15
01:18:29.871 : en:Chapter 16
01:29:11.095 : en:Chapter 17
Релиз от:

Автор рипа: Lefevr



Скачать Лунатики.Sleepwalkers.(Мик.Гэррис).[1992.ужасы.триллер.BDRip].[1080p].[MVO]x2+[AVO]x2+[Оригинал]+[Sub].torrent без регистрации
Золото ЗОЛОТАЯ РАЗДАЧА! СКАЧАННОЕ НЕ ЗАСЧИТЫВАЕТСЯ! Золото
Дата: Зарегистрирован   [ Тип: внутренний ] Как тут cкачать?
MAGNET ссылка
MAGNET ссылка


Скачать .torrent

47 KB

Статус: проверено DHT
Скачан: торрент - 105 раз, раздача полностью - 1 раз
Размер: 9,29 GB
Оценка:  - (Голосов: 0)
Поблагодарили: 1
Поделиться ссылкой на эту раздачу с друзьями:
В контактеFacebookОдноклассникиTwitterLivejournalМой МирLiveinternet
 

 
Показать сообщения:    


Вы не можете начинать темы
Вы не можете отвечать на сообщения
Вы не можете редактировать свои сообщения
Вы не можете удалять свои сообщения
Вы не можете голосовать в опросах
Вы не можете прикреплять файлы к сообщениям
Вы можете скачивать файлы