Loading...
Error

Скачать Последняя остановка 174-го / Љltima Parada 174 / Last Stop 174 (Бруно Баррето) [2008, триллер, драма, криминал, HDRip-AVC] [VO] торрент без регистрации

 
Статистика раздачи
Размер:  2,18 GB   |    Скачан:  114 раз

Полного источника не было: 29 минут

 
Автор Сообщение

Marsianka

[] 



Год выпуска: 2008
Страна: Франция, Бразилия
Жанр: триллер, драма, криминал
Продолжительность: 01:51:47
Перевод: Любительский Одноголосый закадровый
Cубтитры: нет
Режиссер: Бруно Баррето / Bruno Barreto
В ролях: Мишель Гомес, Крис Вианна , Марселло Мелу Джуниор , Габриела Луис , Анна Котрим, Тэй Лопез , Родриго Дос Сантос , Дуглас Силва

Описание:
Основанная на реальных событиях 12 июня 2000 года история бедного мальчишки из фавел Рио Де Жанейро. В фильме почти нет профессиональных актёров, и тем сильнее и правдивее ужасающая картина, которая разворачивается перед нами. Последние несколько часов жизни Алесандро Ду Насименто, «захватчика автобуса номер 174», по телевизору видели миллионы зрителей.



Качество: HDRip-AVC (BD 720)
Формат видео: MKV

Video: 1024x576 (16:9), 23.976 fps, AVC, ~2340 Kbps, 0.165 bits/pixel
Audio: 48.0 KHz, AC3, 6 ch, 448 Kbps - VO

General
Unique ID : 208064484385440799137991433963704273849 (0x9C87C317F23EC83A92544D0CF2BDCBB9)
Complete name : D:Ostanovka 174.chopper887.mkv
Format : Matroska
File size : 2.18 GiB
Duration : 1h 51mn
Overall bit rate : 2 789 Kbps
Movie name : Ostanovka 174.chopper887
Encoded date : UTC 2012-03-23 04:46:34
Writing application : mkvmerge v4.8.0 ('I Got The...') сборка от May 24 2011 03:12:58
Writing library : libebml v1.2.0 + libmatroska v1.1.0

Video
ID : 1
Format : AVC
Format/Info : Advanced Video Codec
Format profile : High@L4.0
Format settings, CABAC : Yes
Format settings, ReFrames : 9 frames
Format settings, GOP : M=1, N=51
Codec ID : V_MPEG4/ISO/AVC
Duration : 1h 51mn
Bit rate : 2 340 Kbps
Width : 1 024 pixels
Height : 576 pixels
Display aspect ratio : 16:9
Frame rate : 23.976 fps
Color space : YUV
Chroma subsampling : 4:2:0
Bit depth : 8 bits
Scan type : Progressive
Bits/(Pixel*Frame) : 0.165
Stream size : 1.78 GiB (82%)
Title : Ostanovka 174.chopper887
Writing library : x264 core 120 r2164 da19765
Encoding settings : cabac=1 / ref=9 / deblock=1:-2:-1 / analyse=0x3:0x133 / me=umh / subme=11 / psy=1 / psy_rd=0.95:0.05 / mixed_ref=1 / me_range=32 / chroma_me=1 / trellis=2 / 8x8dct=1 / cqm=0 / deadzone=21,11 / fast_pskip=0 / chroma_qp_offset=-3 / threads=12 / sliced_threads=0 / nr=0 / decimate=1 / interlaced=0 / bluray_compat=0 / constrained_intra=0 / bframes=8 / b_pyramid=2 / b_adapt=2 / b_bias=0 / direct=3 / weightb=1 / open_gop=0 / weightp=2 / keyint=240 / keyint_min=23 / scenecut=40 / intra_refresh=0 / rc_lookahead=80 / rc=2pass / mbtree=1 / bitrate=2340 / ratetol=1.0 / qcomp=0.60 / qpmin=10 / qpmax=51 / qpstep=4 / cplxblur=20.0 / qblur=0.5 / ip_ratio=1.40 / aq=1:1.00
Language : English

Audio
ID : 2
Format : AC-3
Format/Info : Audio Coding 3
Mode extension : CM (complete main)
Codec ID : A_AC3
Duration : 1h 51mn
Bit rate mode : Constant
Bit rate : 448 Kbps
Channel(s) : 6 channels
Channel positions : Front: L C R, Side: L R, LFE
Sampling rate : 48.0 KHz
Bit depth : 16 bits
Compression mode : Lossy
Stream size : 358 MiB (16%)
Title : VO



Скачать Последняя.остановка.174-го.Љltima.Parada.174.Last.Stop.174.(Бруно.Баррето).[2008.триллер.драма.криминал.HDRip-AVC].[VO].torrent без регистрации
Золото ЗОЛОТАЯ РАЗДАЧА! СКАЧАННОЕ НЕ ЗАСЧИТЫВАЕТСЯ! Золото
Дата: Зарегистрирован   [ Тип: внутренний ] Как тут cкачать?
MAGNET ссылка
MAGNET ссылка


Скачать .torrent

11 KB

Статус: проверено DHT
Скачан: торрент - 114 раз, раздача полностью - 71 раз
Размер: 2,18 GB
Оценка:  5 (Голосов: 1)
Поблагодарили: 1
Поделиться ссылкой на эту раздачу с друзьями:
В контактеFacebookОдноклассникиTwitterLivejournalМой МирLiveinternet
 

 
Показать сообщения:    


Вы не можете начинать темы
Вы не можете отвечать на сообщения
Вы не можете редактировать свои сообщения
Вы не можете удалять свои сообщения
Вы не можете голосовать в опросах
Вы не можете прикреплять файлы к сообщениям
Вы можете скачивать файлы