Loading...
Error

Скачать Миссис Паркер и порочный круг / Mrs. Parker and the Vicious Circle (Алан Рудольф) [1994, драма, биография, DVDRip-AVC] [MVO] торрент без регистрации

 
Статистика раздачи
Размер:  1,71 GB   |    Скачан:  109 раз
Сидов:  1  [  0 KB/s  ]  
 
Автор Сообщение

Marsianka

[] 

Информация о фильме
Название: Миссис Паркер и порочный круг
Оригинальное название: Mrs. Parker and the Vicious Circle
Год выхода: 1994
Жанр: драма, биография
Режиссер: Алан Рудольф / Alan Rudolph
В ролях:
Дженнифер Джейсон Ли / Jennifer Jason Leigh,
Кэмпбелл Скотт / Campbell Scott,
Мэттью Бродерик / Matthew Broderick,
Питер Галлахер / Peter Gallagher,
Дженнифер Билз / Jennifer Beals,
Эндрю МакКарти / Andrew McCarthy,
Уоллес Шоун / Wallace Shawn,
Марта Плимптон / Martha Plimpton,
Сэм Робардс / Sam Robards,
Лили Тейлор / Lili Taylor ...

О фильме:
В этой картине, известной также под названием «Миссис Паркер и круглый стол», рассказывается биография Дороти Паркер, американской писательницы. Внимание авторов фильма сосредоточено на ее взлете и падении в Нью-Йорке и Голливуде в тридцатых и сороковых годах.



Страна: США
Студия: Fine Line Features, Mayfair Entertainment, Miramax Films
Продолжительность: 02:04:36
Перевод: Профессиональный (многоголосный, закадровый)

Файл
Кодек: h.264
Качество: DVDRip-AVC
Видео: 720x352 (2.35:1) @ 834x352 (анаморф), 23.976 fps, AVC, ~1580 Kbps, 0.260 bits/pixel
Звук:
1) Английская 48.0 KHz, AC3, 2 ch, 224 Kbps
2) Русская 48.0 KHz, AC3, 2 ch, 160 Kbps
Субтитры: нет
Исходник - R1 DVD9 (ремастированное издание) + синхр. звуковая дорожка с хорошим переводом.
Общее
Уникальный идентификатор : 248362222483085914806169574335610199583 (0xBAD8D2FA694E595D8C073BA33E299E1F)
Полное имя : E:FilmsMissis_Parker_i_porochniy_krug.1994.DVDRip-AVC.mkv
Формат : Matroska
Версия формата : Version 4 / Version 2
Размер файла : 1,71 Гбайт
Продолжительность : 2 ч. 4 м.
Общий поток : 1966 Кбит/сек
Дата кодирования : UTC 2013-03-16 19:13:41
Программа кодирования : mkvmerge v6.1.0 ('Old Devil') built on Mar 2 2013 14:32:37
Библиотека кодирования : libebml v1.3.0 + libmatroska v1.4.0

Видео
Идентификатор : 1
Формат : AVC
Формат/Информация : Advanced Video Codec
Профиль формата : High@L4.1
Параметр CABAC формата : Да
Параметр ReFrames формата : 9 кадров
Идентификатор кодека : V_MPEG4/ISO/AVC
Продолжительность : 2 ч. 4 м.
Битрейт : 1580 Кбит/сек
Ширина : 720 пикселей
Высота : 352 пикселя
Соотношение сторон : 2,35:1
Соотношение сторон в оригинале : 2,40:1
Режим частоты кадров : Постоянный
Частота кадров : 23,976 кадра/сек
Цветовое пространство : YUV
Субдискретизация насыщенности : 4:2:0
Битовая глубина : 8 бит
Тип развёртки : Прогрессивная
Бит/(Пиксели*Кадры) : 0.260
Размер потока : 1,34 Гбайт (78%)
Библиотека кодирования : x264 core 129 r2245 bc13772
Настройки программы : cabac=1 / ref=9 / deblock=1:0:0 / analyse=0x3:0x133 / me=umh / subme=10 / psy=1 / psy_rd=1.05:0.10 / mixed_ref=1 / me_range=32 / chroma_me=1 / trellis=2 / 8x8dct=1 / cqm=0 / deadzone=21,11 / fast_pskip=0 / chroma_qp_offset=-3 / threads=8 / lookahead_threads=1 / sliced_threads=0 / nr=0 / decimate=0 / interlaced=0 / bluray_compat=0 / constrained_intra=0 / bframes=16 / b_pyramid=2 / b_adapt=2 / b_bias=0 / direct=3 / weightb=1 / open_gop=0 / weightp=2 / keyint=240 / keyint_min=23 / scenecut=40 / intra_refresh=0 / rc=2pass / mbtree=0 / bitrate=1580 / ratetol=1.0 / qcomp=0.60 / qpmin=0 / qpmax=60 / qpstep=4 / cplxblur=20.0 / qblur=0.5 / ip_ratio=1.40 / pb_ratio=1.30 / aq=2:1.00
Default : Нет
Forced : Нет
Коэффициенты матрицы : BT.601

Аудио #1
Идентификатор : 2
Формат : AC-3
Формат/Информация : Audio Coding 3
Расширение режима : CM (complete main)
Параметр Endianness формата : Big
Идентификатор кодека : A_AC3
Продолжительность : 2 ч. 4 м.
Вид битрейта : Постоянный
Битрейт : 224 Кбит/сек
Каналы : 2 канала
Расположение каналов : Front: L R
Частота : 48,0 КГц
Битовая глубина : 16 бит
Метод сжатия : С потерями
Размер потока : 200 Мбайт (11%)
Язык : English
Default : Нет
Forced : Нет

Аудио #2
Идентификатор : 3
Формат : AC-3
Формат/Информация : Audio Coding 3
Расширение режима : CM (complete main)
Параметр Endianness формата : Big
Идентификатор кодека : A_AC3
Продолжительность : 2 ч. 4 м.
Вид битрейта : Постоянный
Битрейт : 160 Кбит/сек
Каналы : 2 канала
Расположение каналов : Front: L R
Частота : 48,0 КГц
Битовая глубина : 16 бит
Метод сжатия : С потерями
Размер потока : 143 Мбайт (8%)
Язык : Russian
Default : Да
Forced : Нет

Меню
00:00:00.000 : en:Chapter 01
00:07:08.567 : en:Chapter 02
00:10:06.934 : en:Chapter 03
00:15:38.301 : en:Chapter 04
00:25:38.169 : en:Chapter 05
00:34:36.536 : en:Chapter 06
00:37:51.770 : en:Chapter 07
00:42:18.037 : en:Chapter 08
00:47:54.671 : en:Chapter 09
00:52:32.905 : en:Chapter 10
00:59:55.139 : en:Chapter 11
01:10:43.406 : en:Chapter 12
01:13:29.740 : en:Chapter 13
01:18:10.940 : en:Chapter 14
01:26:40.474 : en:Chapter 15
01:39:37.641 : en:Chapter 16
01:43:31.509 : en:Chapter 17
01:49:03.009 : en:Chapter 18
01:54:18.643 : en:Chapter 19
02:00:35.010 : en:Chapter 20
02:04:27.611 : en:Chapter 21
x264 [info]: frame I:894 Avg QP:14.91 size: 39713
x264 [info]: frame P:35294 Avg QP:17.64 size: 17084
x264 [info]: frame B:143056 Avg QP:19.89 size: 5858
Релиз от: от Temperest



Скачать Миссис.Паркер.и.порочный.круг.Mrs.Parker.and.the.Vicious.Circle.(Алан.Рудольф).[1994.драма.биография.DVDRip-AVC].[MVO].torrent без регистрации
Золото ЗОЛОТАЯ РАЗДАЧА! СКАЧАННОЕ НЕ ЗАСЧИТЫВАЕТСЯ! Золото
Дата: Зарегистрирован   [ Тип: внутренний ] Как тут cкачать?
MAGNET ссылка
MAGNET ссылка


Скачать .torrent

18 KB

Статус: проверено DHT
Скачан: торрент - 109 раз, раздача полностью - 16 раз
Размер: 1,71 GB
Оценка:  - (Голосов: 0)
Поблагодарили: 0
Поделиться ссылкой на эту раздачу с друзьями:
В контактеFacebookОдноклассникиTwitterLivejournalМой МирLiveinternet
 

 
Показать сообщения:    


Вы не можете начинать темы
Вы не можете отвечать на сообщения
Вы не можете редактировать свои сообщения
Вы не можете удалять свои сообщения
Вы не можете голосовать в опросах
Вы не можете прикреплять файлы к сообщениям
Вы можете скачивать файлы