Loading...
Error

Скачать Добро пожаловать в Лос-Анджелес / Welcome to L.A. (Алан Рудольф) [1976, драма, DVDRip-AVC] [DVO] торрент без регистрации

 
Статистика раздачи
Размер:  1,58 GB   |    Скачан:  100 раз
Сидов:  1  [  0 KB/s  ]  
 
Автор Сообщение

Marsianka

[] 

Информация о фильме
Название: Добро пожаловать в Лос-Анджелес
Оригинальное название: Welcome to L.A.
Год выхода: 1976
Жанр: драма
Режиссер: Алан Рудольф / Alan Rudolph
В ролях: Кит Кэррадайн / Keith Carradine, Сэлли Келлермен / Sally Kellerman, Джеральдин Чаплин / Geraldine Chaplin, Харви Кейтель / Harvey Keitel, Лорен Хаттон / Lauren Hutton, Вивека Линдфорс / Viveca Lindfors, Сисси Спейсек / Sissy Spacek, Денвер Пайл / Denver Pyle, Джон Консидайн / John Considine, Ричард Баскин / Richard Baskin, Аллан Ф. Николлс / Allan F. Nicholls, Седрик Скотт / Cedric Scott, Майк Э. Каплан / Mike E. Kaplan, Дайэнн Эбботт / Diahnne Abbott

О фильме:
Сценарий основан на музыкальной сюите "Город одноразовой любви" (City of the One Night Stands).
Объявленный некоторыми как один из самых оригинальных и новаторских режиссерских дебютов 1970-х годов, фильм Рудолфа "Добро пожаловать в Эл. Эй", как и его же "Запомни мое имя", кажется, конкретно направлены на получение культового статуса. Он охватывает взглядом уверенную в своей важности некую группу Лос-Анджелесской богемы и их по существу никчемные жизни, которые в основном вращаются вокруг секса, алкоголя и катания на машинах (хотя необязательно одновременно). Кэррэдин и его приятель Олтмэн, ветераны кино, кажется просто бродят где попало, и успех фильма или его провал зависит почти полностью, насколько Вы их любите и какое у Вас во время просмотра будет настроение. (Иванов М.)



Страна: США
Студия: Lion's Gate Films
Продолжительность: 01:43:13
Перевод: Профессиональный (двухголосный закадровый) НТВ+ (Елена Борзунова, Алексей Борзунов)

Файл
Кодек: h.264
Качество: DVDRip-AVC
Видео: 704x464 (16:9) @ 834x464 (анаморф), 23.976 fps, AVC, ~1875 Kbps, 0.239 bits/pixel
Звук:
1) Английский, 48.0 KHz, AC3, 2 ch, 192 Kbps
2) Русский, 48.0 KHz, AC3, 2 ch, 128 Kbps
Субтитры: нет
Общее
Уникальный идентификатор : 252498723316708310745985146978612812547 (0xBDF57C3715943B6FA2F4B6893B881B03)
Полное имя : E:FilmsDobro_pozhalovat_v_Los_Anzhelos.1976.DVDRip-AVC.mkv
Формат : Matroska
Версия формата : Version 4 / Version 2
Размер файла : 1,58 Гбайт
Продолжительность : 1 ч. 43 м.
Общий поток : 2197 Кбит/сек
Дата кодирования : UTC 2013-03-17 02:42:51
Программа кодирования : mkvmerge v6.1.0 ('Old Devil') built on Mar 2 2013 14:32:37
Библиотека кодирования : libebml v1.3.0 + libmatroska v1.4.0

Видео
Идентификатор : 1
Формат : AVC
Формат/Информация : Advanced Video Codec
Профиль формата : High@L4.1
Параметр CABAC формата : Да
Параметр ReFrames формата : 9 кадров
Идентификатор кодека : V_MPEG4/ISO/AVC
Продолжительность : 1 ч. 43 м.
Битрейт : 1875 Кбит/сек
Ширина : 704 пикселя
Высота : 464 пикселя
Соотношение сторон : 16:9
Соотношение сторон в оригинале : 16:9
Режим частоты кадров : Постоянный
Частота кадров : 23,976 кадра/сек
Цветовое пространство : YUV
Субдискретизация насыщенности : 4:2:0
Битовая глубина : 8 бит
Тип развёртки : Прогрессивная
Бит/(Пиксели*Кадры) : 0.239
Размер потока : 1,32 Гбайт (83%)
Библиотека кодирования : x264 core 129 r2245 bc13772
Настройки программы : cabac=1 / ref=9 / deblock=1:0:0 / analyse=0x3:0x133 / me=umh / subme=10 / psy=1 / psy_rd=1.05:0.10 / mixed_ref=1 / me_range=32 / chroma_me=1 / trellis=2 / 8x8dct=1 / cqm=0 / deadzone=21,11 / fast_pskip=0 / chroma_qp_offset=-3 / threads=8 / lookahead_threads=1 / sliced_threads=0 / nr=0 / decimate=0 / interlaced=0 / bluray_compat=0 / constrained_intra=0 / bframes=13 / b_pyramid=2 / b_adapt=2 / b_bias=0 / direct=3 / weightb=1 / open_gop=0 / weightp=2 / keyint=240 / keyint_min=23 / scenecut=40 / intra_refresh=0 / rc=2pass / mbtree=0 / bitrate=1875 / ratetol=1.0 / qcomp=0.60 / qpmin=0 / qpmax=60 / qpstep=4 / cplxblur=20.0 / qblur=0.5 / ip_ratio=1.40 / pb_ratio=1.30 / aq=2:1.00
Default : Нет
Forced : Нет
Коэффициенты матрицы : BT.601

Аудио #1
Идентификатор : 2
Формат : AC-3
Формат/Информация : Audio Coding 3
Расширение режима : CM (complete main)
Параметр Endianness формата : Big
Идентификатор кодека : A_AC3
Продолжительность : 1 ч. 43 м.
Вид битрейта : Постоянный
Битрейт : 192 Кбит/сек
Каналы : 2 канала
Расположение каналов : Front: L R
Частота : 48,0 КГц
Битовая глубина : 16 бит
Метод сжатия : С потерями
Размер потока : 142 Мбайт (9%)
Язык : English
Default : Нет
Forced : Нет

Аудио #2
Идентификатор : 3
Формат : AC-3
Формат/Информация : Audio Coding 3
Расширение режима : CM (complete main)
Параметр Endianness формата : Big
Идентификатор кодека : A_AC3
Продолжительность : 1 ч. 43 м.
Вид битрейта : Постоянный
Битрейт : 128 Кбит/сек
Каналы : 2 канала
Расположение каналов : Front: L R
Частота : 48,0 КГц
Битовая глубина : 16 бит
Метод сжатия : С потерями
Размер потока : 94,5 Мбайт (6%)
Язык : Russian
Default : Да
Forced : Нет

Меню
00:00:00.000 : en:Chapter 01
00:10:00.634 : en:Chapter 02
00:20:00.201 : en:Chapter 03
00:30:00.368 : en:Chapter 04
00:40:00.336 : en:Chapter 05
00:50:00.037 : en:Chapter 06
01:00:00.104 : en:Chapter 07
01:10:00.504 : en:Chapter 08
01:19:59.938 : en:Chapter 09
01:30:00.438 : en:Chapter 10
01:40:00.406 : en:Chapter 11
01:43:05.673 : en:Chapter 12
Исходник - R1 MGM Limited Edition Collection + синхр. дорожка с переводм НТВ+.
x264 [info]: frame I:802 Avg QP:13.93 size: 46228
x264 [info]: frame P:26017 Avg QP:16.68 size: 19284
x264 [info]: frame B:121661 Avg QP:18.49 size: 7499
Релиз от: от Temperest



Скачать Добро.пожаловать.в.Лос-Анджелес.Welcome.to.L.A.(Алан.Рудольф).[1976.драма.DVDRip-AVC].[DVO].torrent без регистрации
Золото ЗОЛОТАЯ РАЗДАЧА! СКАЧАННОЕ НЕ ЗАСЧИТЫВАЕТСЯ! Золото
Дата: Зарегистрирован   [ Тип: внутренний ] Как тут cкачать?
MAGNET ссылка
MAGNET ссылка


Скачать .torrent

16 KB

Статус: проверено DHT
Скачан: торрент - 100 раз, раздача полностью - 1 раз
Размер: 1,58 GB
Оценка:  - (Голосов: 0)
Поблагодарили: 0
Поделиться ссылкой на эту раздачу с друзьями:
В контактеFacebookОдноклассникиTwitterLivejournalМой МирLiveinternet
 

 
Показать сообщения:    


Вы не можете начинать темы
Вы не можете отвечать на сообщения
Вы не можете редактировать свои сообщения
Вы не можете удалять свои сообщения
Вы не можете голосовать в опросах
Вы не можете прикреплять файлы к сообщениям
Вы можете скачивать файлы