Loading...
Error

Скачать Бесславные ублюдки | Inglourious Basterds (Квентин Тарантино, Элай Рот) [2009, боевик, драма, комедия, военный, BDRip - AVC] [DUB] торрент без регистрации

 
Статистика раздачи
Размер:  3,03 GB   |    Скачан:  308 раз
Сидов:  1  [  0 KB/s  ]  
 
Автор Сообщение

and77200

[] 


Год выпуска: 2009
Страна: США, Германия
Жанр: боевик, драма, комедия, военный
Продолжительность: 02:32:52
Перевод: Профессиональный (полное дублирование)
Режиссер: Квентин Тарантино / Quentin Tarantino, Элай Рот / Eli Roth

В ролях: Брэд Питт (Lt. Aldo Raine), Кристоф Вальц (Col. Hans Landa), Мелани Лоран (Shosanna Dreyfus), Даниэль Брюль (Fredrick Zoller), Дайан Крюгер (Bridget von Hammersmark), Майкл Фассбендер (Lt. Archie Hicox), Аугуст Диль (Major Hellstrom), Элай Рот (Sgt. Donny Donowitz), Тиль Швайгер (Sgt. Hugo Stiglitz), Гедеон Буркхард (Cpl. Wilhelm Wicki), Джеки Идо (Marcel), Б.Дж. Новак (Pfc. Smithson Utivich)
Описание: Вторая мировая война, в оккупированной немцами Франции группа американских солдат-евреев наводит страх на нацистов, жестоко убивая и скальпируя солдат.

Качество: BDRip - AVC
Контейнер: MKV
Видео кодек: AVC
Аудио кодек: AC3

Видео: AVC, 1024x424 (2.40:1), 2200 kbps, 23,976 fps, 0,211 bpp
Аудио: русский / AC3 / 5.1 / 48 kHz / 640 kbps / 16 bit
Рип: and77200




General
Complete name : E:\торрент\Бесславные ублюдки (2009) BDRip - AVC.mkv
Format : Matroska
File size : 3.03 GiB
Duration : 2h 32mn
Overall bit rate : 2 841 Kbps
Encoded date : UTC 2013-03-17 04:53:30
Writing application : mkvmerge v5.7.0 ('The Whirlwind') built on Jul 8 2012 20:08:51
Writing library : libebml v1.2.3 + libmatroska v1.3.0

Video
ID : 1
Format : AVC
Format/Info : Advanced Video Codec
Format profile : High@L4.1
Format settings, CABAC : Yes
Format settings, ReFrames : 4 frames
Muxing mode : Container profile=Unknown@4.1
Codec ID : V_MPEG4/ISO/AVC
Duration : 2h 32mn
Bit rate : 2 145 Kbps
Nominal bit rate : 2 200 Kbps
Width : 1 024 pixels
Height : 424 pixels
Display aspect ratio : 2.35:1
Original display aspect ratio : 2.40:1
Frame rate mode : Variable
Frame rate : 23.976 fps
Resolution : 24 bits
Colorimetry : 4:2:0
Scan type : Progressive
Bits/(Pixel*Frame) : 0.206
Stream size : 2.29 GiB (75%)
Writing library : x264 core 124 r2197M 69a0443
Encoding settings : cabac=1 / ref=5 / deblock=1:0:0 / analyse=0x3:0x133 / me=umh / subme=9 / psy=1 / psy_rd=1.00:0.20 / mixed_ref=1 / me_range=16 / chroma_me=1 / trellis=0 / 8x8dct=1 / cqm=0 / deadzone=21,11 / fast_pskip=1 / chroma_qp_offset=-2 / threads=2 / sliced_threads=0 / nr=0 / decimate=1 / interlaced=0 / bluray_compat=0 / constrained_intra=0 / bframes=5 / b_pyramid=1 / b_adapt=0 / b_bias=0 / direct=3 / weightb=1 / open_gop=0 / weightp=0 / keyint=230 / keyint_min=23 / scenecut=40 / intra_refresh=0 / rc_lookahead=40 / rc=2pass / mbtree=1 / bitrate=2200 / ratetol=1.0 / qcomp=0.60 / qpmin=10 / qpmax=51 / qpstep=5 / cplxblur=20.0 / qblur=0.5 / ip_ratio=1.40 / aq=1:1.00

Audio
ID : 2
Format : AC-3
Format/Info : Audio Coding 3
Codec ID : A_AC3
Duration : 2h 32mn
Bit rate mode : Constant
Bit rate : 640 Kbps
Channel(s) : 6 channels
Channel positions : Front: L C R, Surround: L R, LFE
Sampling rate : 48.0 KHz
Stream size : 700 MiB (23%)
Language : Russian

Menu
00:00:00.000 : :Chapter 1
00:01:50.610 : :Chapter 2
00:07:06.384 : :Chapter 3
00:21:20.821 : :Chapter 4
00:24:12.826 : :Chapter 5
00:28:15.902 : :Chapter 6
00:30:18.942 : :Chapter 7
00:37:57.108 : :Chapter 8
00:41:47.922 : :Chapter 9
00:48:28.405 : :Chapter 10
00:53:53.563 : :Chapter 11
01:00:50.438 : :Chapter 12
01:04:05.341 : :Chapter 13
01:09:24.702 : :Chapter 14
01:12:17.166 : :Chapter 15
01:19:25.927 : :Chapter 16
01:32:54.777 : :Chapter 17
01:37:02.233 : :Chapter 18
01:43:51.475 : :Chapter 19
01:45:38.040 : :Chapter 20
01:50:30.624 : :Chapter 21
01:57:35.089 : :Chapter 22
02:03:38.452 : :Chapter 23
02:10:30.072 : :Chapter 24
02:16:40.859 : :Chapter 25
02:23:10.748 : :Chapter 26
02:25:47.280 : :Chapter 27
02:29:30.962 : :Chapter 28
02:32:51.912 : :Chapter 29
Оформление by and77200



Скачать Бесславные.ублюдки.|.Inglourious.Basterds.(Квентин.Тарантино.Элай.Рот).[2009.боевик.драма.комедия.военный.BDRip.-.AVC].[DUB].torrent без регистрации
Золото ЗОЛОТАЯ РАЗДАЧА! СКАЧАННОЕ НЕ ЗАСЧИТЫВАЕТСЯ! Золото
Дата: Зарегистрирован   [ Тип: внутренний ] Как тут cкачать?
MAGNET ссылка
MAGNET ссылка


Скачать .torrent

123 KB

Статус: проверено DHT
Скачан: торрент - 308 раз, раздача полностью - 229 раз
Размер: 3,03 GB
Оценка:  - (Голосов: 0)
Поблагодарили: 8
Поделиться ссылкой на эту раздачу с друзьями:
В контактеFacebookОдноклассникиTwitterLivejournalМой МирLiveinternet
 

 
Показать сообщения:    


Вы не можете начинать темы
Вы не можете отвечать на сообщения
Вы не можете редактировать свои сообщения
Вы не можете удалять свои сообщения
Вы не можете голосовать в опросах
Вы не можете прикреплять файлы к сообщениям
Вы можете скачивать файлы