Loading...
Error

Скачать Гол 2: Жизнь как мечта / Goal II: Living the Dream (Жауме Серра) [2007, драма, спорт, DVDRip] [Dub]+[Оригинал]+[Sub] торрент без регистрации

 
Статистика раздачи
Размер:  2,18 GB   |    Скачан:  125 раз

Полного источника не было: 25 минут

 
Автор Сообщение

Marsianka

[] 

Год выпуска: 2007
Страна: Великобритания
Киностудия: Anola Films S.L., Impala, Little Magic Films
Жанр: драма, спорт
Продолжительность: 1:50:40

Перевод: Профессиональный (полное дублирование)
Субтитры: Русский
Оригинальная аудиодорожка: Английский
Режиссер: Жауме Серра / Jaume Collet-Serra

В ролях: Куно Беккер, Алессандро Нивола, Анна Фрил, Стивен Диллэйн, Рутгер Хауэр, Элизабет Пенья, Фрэнсис Барбер, Дэвид Бекхэм, Зинедин Зидан, Мириам Колон, Киран О'Брайен, Леонор Варела, Шон Пертви, Ник Кэннон, Альфредо Родригес, Майк Джеффрис, Уильям Бек, Эмма Филд-Рэйнер, Сезар Жулио Баптиста, Икер Касиллас, Джон Гомес, Рауль Гонсалес, Хосе Мария Гутиеррес, Кармело Гомес, Стив МакМанаман, Франсиско Павон, Серхио Рамос, Робиньо, Роналдо, Мичел Сальгадо, Майкл Оуэн

Описание: У восходящей звезды футбола Сантьяго Муньеса есть все: место нападающего в легендарной команде «Реал Мадрид», новенький «Ламборджини», собственная вилла, любовь знойных испанских красавиц. Но самое главное у него есть возможность играть на одном поле и пользоваться одной раздевалкой с величайшими футболистами современности с Бекхемом, Раулем, Зиданом и Рональдо! Но прошлое не отпускает Сантьяго проблемы таятся буквально за углом. Сумеет ли молодой футболист преодолеть искушение славой, деньгами, успехом? Сможет ли он сохранить преданность старым друзьям, и помочь своей новой команде выиграть финал Лиги Чемпионов?

Источник: DVD9 R5
Качество видео: DVDRip
Формат видео: AVI

Видео: 720x304 (2.35:1), 25 fps, XviD ~ 2229 kbps avg, 0.407 bit/pixel
Аудио 1.: Русский, 48 kHz, AC3 2 ch, 192.00 kbps Constant
Аудио 2.: Английский, 48 kHz, AC3 6 ch, 384.00 kbps Constant
Формат субтитров: SoftSub (srt)

Общее
Полное имя : Gol.2.Zhizn'.kak.mechta.DVDRip.avi
Формат : AVI
Формат/Информация : Audio Video Interleave
Размер файла : 1,88 Гбайт
Продолжительность : 1 ч. 50 м.
Общий поток : 2431 Кбит/сек
Программа кодирования : VirtualDubMod 1.5.10.3 | www.virtualdub-fr.org || (build 2550/release)
Библиотека кодирования : VirtualDubMod build 2550/release

Видео
Идентификатор : 0
Формат : MPEG-4 Visual
Профиль формата : Advanced Simple@L5
Параметр BVOP формата : 1
Параметр QPel формата : Нет
Параметр GMC формата : Без точки перехода
Параметр матрицы формата : Выборочная
Идентификатор кодека : XVID
Идентификатор кодека/Подсказка : XviD
Продолжительность : 1 ч. 50 м.
Битрейт : 2229 Кбит/сек
Ширина : 720 пикс.
Высота : 304 пикс.
Соотношение сторон : 2,35:1
Частота кадров : 25,000 кадр/сек
Цветовое пространство : YUV
Подвыборка цветности : 4:2:0
Битовая глубина : 8 бит
Тип развёртки : Прогрессивная
Метод сжатия : С потерями
Бит/(Пиксели*Кадры) : 0.407
Размер потока : 1,72 Гбайт (92%)
Библиотека кодирования : XviD 1.2.1 (UTC 2008-12-04)

Аудио
Идентификатор : 1
Формат : AC-3
Формат/Информация : Audio Coding 3
Расширение режима : CM (complete main)
Идентификатор кодека : 2000
Продолжительность : 1 ч. 50 м.
Вид битрейта : Постоянный
Битрейт : 192 Кбит/сек
Каналы : 2 канала
Расположение каналов : Front: L R
Частота : 48,0 КГц
Битовая глубина : 16 бит
Метод сжатия : С потерями
Размер потока : 152 Мбайт (8%)
Выравнивание : Разделение по промежуткам
Продолжительность промежутка : 40 мс. (1,00 видеокадр)
Время предзагрузки промежутка : 500 ms
Раздача от:



Скачать Гол.2.Жизнь.как.мечта.Goal.II.Living.the.Dream.(Жауме.Серра).[2007.драма.спорт.DVDRip].[Dub]+[Оригинал]+[Sub].torrent без регистрации
Золото ЗОЛОТАЯ РАЗДАЧА! СКАЧАННОЕ НЕ ЗАСЧИТЫВАЕТСЯ! Золото
Дата: Зарегистрирован   [ Тип: внутренний ] Как тут cкачать?
MAGNET ссылка
MAGNET ссылка


Скачать .torrent

12 KB

Статус: проверено DHT
Скачан: торрент - 125 раз, раздача полностью - 72 раз
Размер: 2,18 GB
Оценка:  - (Голосов: 0)
Поблагодарили: 0
Поделиться ссылкой на эту раздачу с друзьями:
В контактеFacebookОдноклассникиTwitterLivejournalМой МирLiveinternet
 

 
Показать сообщения:    


Вы не можете начинать темы
Вы не можете отвечать на сообщения
Вы не можете редактировать свои сообщения
Вы не можете удалять свои сообщения
Вы не можете голосовать в опросах
Вы не можете прикреплять файлы к сообщениям
Вы можете скачивать файлы