Loading...
Error

Скачать Гранд Отель / Gran Hotel (сезон 03) (Карлос Седес, Сильвия Квир, Хорхе Санчес-Кабесудо) [2013, драма, HDTVRip] [720p] [Sub] торрент без регистрации

 
Статистика раздачи
Размер:  33,77 GB   |    Скачан:  142 раза
Сидов:  1  [  0 KB/s  ]  
 
Автор Сообщение

МихаНЕзатор

[] 

Название: Гранд Отель
Оригинальное название: Gran Hotel
Год выпуска: 2013
Жанр: драма
Режиссер: Карлос Седес, Сильвия Квир, Хорхе Санчес-Кабесудо

В ролях: Йон Гонсалес (Хулио Ольмедо), Амайя Саламанка (Алисия Аларкон), Адриана Осорес (донья Тереса), Педро Алонсо (Диего), Элой Асорин (Хавьер Аларкон), Феле Мартинес (Альфредо Вергара), Иван Моралес (Себастьян)

Описание: Действие происходит в 1905 году. Молодой человек Хулио приезжает в идиллическое место Гранд отель, где он намерен выяснить причины исчезновение своей сестры. Но на пути его расследования встретится Алисия Аларкон, член семьи владельца отеля, и которая станет единственным человеком, готовым помочь ему раскрыть правду. Между ними начнется невозможная история любви. Им мешает то обстоятельство, что Алисия помолвлена с Диего, амбициозным юношей, который готов на всё, чтобы стать директором Гранд Отеля

Страна: Испания
Продолжительность: 08 х ~ 01:15:00
Перевод: Субтитры
Субтитры: Русские - Переведено на Нотабеноиде

Переводчики: Risti, premudraia, Marina_Ch, embryosel, Fantik, Olguitochka, KARINA86, shokkolattka



Качество: HDTVRip 720p
Формат: MKV
Видео: АVС, 1280x720, 1800 Kbps
Аудио: MP2, 48 kHz, 2 ch, 192 kbps - Испанский

05.07.2013 г. торент обновлён, добавлена 20-22 серия, сезон полностью!

01 - Baile de mascares (Бал-маскарад)
02 - Proposito de enmienda (Благие намерения)
03 - El secuestro (Похищение)
04 - Album de familia (Семейный альбом)
05 - El juego de las apariencias (Игра воображения)
06 - Lazos de sangre (Кровные узы)
07 - Южное общество (El cќrculo del mediodia)
08 - La ultima noche (Последняя ночь)



Общее
Уникальный идентификатор : 244341316530816814804296661147437142758 (0xB7D26D02432647A697F08B63FE7692E6)
Полное имя : K:МОИ РАЗДАЧИGran Hotel 33x01 - Baile de mascares (Бал-маскарад).mkv
Формат : Matroska
Версия формата : Version 1
Размер файла : 1,24 Гбайт
Продолжительность : 1 ч. 25 м.
Общий поток : 2066 Кбит/сек
Дата кодирования : UTC 2013-01-30 08:36:15
Программа кодирования : mkvmerge v2.1.0 ('Another Place To Fall') built on Aug 19 2007 13:45:34
Библиотека кодирования : libebml v0.7.7 + libmatroska v0.8.1

Видео
Идентификатор : 1
Формат : AVC
Формат/Информация : Advanced Video Codec
Профиль формата : High@L4.1
Параметр CABAC формата : Да
Параметр ReFrames формата : 5 кадров
Идентификатор кодека : V_MPEG4/ISO/AVC
Продолжительность : 1 ч. 25 м.
Битрейт : 1833 Кбит/сек
Ширина : 1280 пикселей
Высота : 720 пикселей
Соотношение сторон : 16:9
Частота кадров : 25,000 кадров/сек
Цветовое пространство : YUV
Субдискретизация насыщенности : 4:2:0
Битовая глубина : 8 бит
Тип развёртки : Прогрессивная
Бит/(Пиксели*Кадры) : 0.080
Размер потока : 1,10 Гбайт (89%)
Заголовок : Гранд Отель. Сезон 3 / Gran Hotel. Temporada 3 (2013)
Библиотека кодирования : x264 core 129 r2245 bc13772
Настройки программы : cabac=1 / ref=5 / deblock=1:0:0 / analyse=0x3:0x113 / me=umh / subme=8 / psy=1 / psy_rd=1.00:0.00 / mixed_ref=1 / me_range=16 / chroma_me=1 / trellis=1 /
8x8dct=1 / cqm=0 / deadzone=21,11 / fast_pskip=1 / chroma_qp_offset=-2 / threads=12 / lookahead_threads=2 / sliced_threads=0 / nr=0 / decimate=1 / interlaced=0 / bluray_compat=0 /
constrained_intra=0 / bframes=3 / b_pyramid=2 / b_adapt=2 / b_bias=0 / direct=3 / weightb=1 / open_gop=0 / weightp=2 / keyint=250 / keyint_min=25 / scenecut=40 / intra_refresh=0 /
rc_lookahead=50 / rc=crf / mbtree=1 / crf=19.0 / qcomp=0.60 / qpmin=0 / qpmax=69 / qpstep=4 / ip_ratio=1.40 / aq=1:1.00
Язык : Spanish
Default : Да
Forced : Нет
Коэффициенты матрицы : BT.709-5, BT.1361, IEC 61966-2-4 709, SMPTE RP177

Аудио
Идентификатор : 2
Формат : MPEG Audio
Версия формата : Version 1
Профиль формата : Layer 2
Идентификатор кодека : A_MPEG/L2
Идентификатор кодека/Подсказка : MP2
Продолжительность : 1 ч. 25 м.
Вид битрейта : Постоянный
Битрейт : 192 Кбит/сек
Каналы : 2 канала
Частота : 48,0 КГц
Метод сжатия : С потерями
Размер потока : 118 Мбайт (9%)
Язык : Spanish
Default : Да
Forced : Нет

Текст
Идентификатор : 3
Формат : UTF-8
Идентификатор кодека : S_TEXT/UTF8
Идентификатор кодека/Информация : UTF-8 Plain Text
Заголовок : notabenoid.com / Переводчики: Risti, premudraia, Marina_Ch, embryosel, Fantik, Olguitochka, KARINA86, shokkolattka
Язык : Russian
Default : Да
Forced : Нет



Скачать Гранд.Отель.Gran.Hotel.(сезон.03).(Карлос.Седес.Сильвия.Квир.Хорхе.Санчес-Кабесудо).[2013.драма.HDTVRip].[720p].[Sub].torrent без регистрации
Золото ЗОЛОТАЯ РАЗДАЧА! СКАЧАННОЕ НЕ ЗАСЧИТЫВАЕТСЯ! Золото
Дата: Зарегистрирован   [ Тип: внутренний ] Как тут cкачать?
MAGNET ссылка
MAGNET ссылка


Скачать .torrent

171 KB

Статус: проверено DHT
Скачан: торрент - 142 раз, раздача полностью - 2 раз
Размер: 33,77 GB
Оценка:  - (Голосов: 0)
Поблагодарили: 0
Поделиться ссылкой на эту раздачу с друзьями:
В контактеFacebookОдноклассникиTwitterLivejournalМой МирLiveinternet
 

 

МихаНЕзатор

[] 

Раздача обновлена.
 
Показать сообщения:    


Вы не можете начинать темы
Вы не можете отвечать на сообщения
Вы не можете редактировать свои сообщения
Вы не можете удалять свои сообщения
Вы не можете голосовать в опросах
Вы не можете прикреплять файлы к сообщениям
Вы можете скачивать файлы