Loading...
Error

Скачать Гранд Отель / Gran Hotel (сезон 03) (Карлос Седес, Сильвия Квир, Хорхе Санчес-Кабесудо) [2013, драма, HDTVRip] [Sub] торрент без регистрации

 
Статистика раздачи
Размер:  19,21 GB   |    Скачан:  175 раз
Сидов:  1  [  0 KB/s  ]  
 
Автор Сообщение

МихаНЕзатор

[] 

Название: Гранд Отель
Оригинальное название: Gran Hotel
Год выпуска: 2013
Жанр: Драма
Режиссер: Карлос Седес, Сильвия Квир, Хорхе Санчес-Кабесудо

В ролях: Йон Гонсалес (Хулио Ольмедо), Амайя Саламанка (Алисия Аларкон), Адриана Осорес (донья Тереса), Педро Алонсо (Диего), Элой Асорин (Хавьер Аларкон), Феле Мартинес (Альфредо Вергара), Иван Моралес (Себастьян)

Описание: Действие происходит в 1905 году. Молодой человек Хулио приезжает в идиллическое место Гранд отель, где он намерен выяснить причины исчезновение своей сестры. Но на пути его расследования встретится Алисия Аларкон, член семьи владельца отеля, и которая станет единственным человеком, готовым помочь ему раскрыть правду. Между ними начнется невозможная история любви. Им мешает то обстоятельство, что Алисия помолвлена с Диего, амбициозным юношей, который готов на всё, чтобы стать директором Гранд Отеля

Страна: Испания
Продолжительность: 08 х ~ 01:15:00
Перевод: Субтитры, внешние, SRT
Субтитры: Русские - Переведено на Нотабеноиде

Переводчики: Risti, premudraia, Marina_Ch, embryosel, Fantik, Olguitochka, KARINA86, shokkolattka



Качество: HDTVRip
Формат: AVI
Видео: DivX, 624x352, 1245 Kbps
Аудио: MP3, 48 kHz, 2 ch, 128 kbps - Испанский

05.07.2013 г. торент обновлён, добавлена 20-22 серия!

01 - Baile de mascares (Бал-маскарад)
02 - Proposito de enmienda (Благие намерения)
03 - El secuestro (Похищение)
04 - Album de familia (Семейный альбом)
05 - El juego de las apariencias (Игра воображения)
06 - Lazos de sangre (Кровные узы)
07 - Южное общество (El cќrculo del mediodia)
08 - La ultima noche (Последняя ночь)


Формат : AVI
Формат/Информация : Audio Video Interleave
Размер файла : 942 Мбайт
Продолжительность : 1 ч. 25 м.
Общий поток : 1537 Кбит/сек
Название фильма : Гранд Отель. Сезон 3 / Gran Hotel. Temporada 3 (2013)
Программа кодирования : VirtualDubMod 1.5.10.2 (build 2540/release)
Библиотека кодирования : VirtualDubMod build 2540/release

Видео
Идентификатор : 0
Формат : MPEG-4 Visual
Параметр BVOP формата : 1
Параметр QPel формата : Нет
Параметр GMC формата : Без точки перехода
Параметр матрицы формата : Default (H.263)
Режим смешивания : Сжатый битовый поток
Идентификатор кодека : DX50
Идентификатор кодека/Подсказка : DivX 5
Продолжительность : 1 ч. 25 м.
Битрейт : 1399 Кбит/сек
Ширина : 624 пикселя
Высота : 352 пикселя
Соотношение сторон : 16:9
Частота кадров : 25,000 кадров/сек
Цветовое пространство : YUV
Субдискретизация насыщенности : 4:2:0
Битовая глубина : 8 бит
Тип развёртки : Прогрессивная
Метод сжатия : С потерями
Бит/(Пиксели*Кадры) : 0.255
Размер потока : 858 Мбайт (91%)
Библиотека кодирования : DivX 5.2.1 (WaffleDay) (UTC 2004-09-08)

Аудио
Идентификатор : 1
Формат : MPEG Audio
Версия формата : Version 1
Профиль формата : Layer 3
Режим : Joint stereo
Расширение режима : MS Stereo
Идентификатор кодека : 55
Идентификатор кодека/Подсказка : MP3
Продолжительность : 1 ч. 25 м.
Вид битрейта : Постоянный
Битрейт : 128 Кбит/сек
Каналы : 2 канала
Частота : 48,0 КГц
Метод сжатия : С потерями
Размер потока : 78,5 Мбайт (8%)
Выравнивание : Разделение по промежуткам
Продолжительность промежутка : 40 мс. (1,00 видеокадр)
Время предзагрузки промежутка : 500 мс.
Заголовок : Испанский



Скачать Гранд.Отель.Gran.Hotel.(сезон.03).(Карлос.Седес.Сильвия.Квир.Хорхе.Санчес-Кабесудо).[2013.драма.HDTVRip].[Sub].torrent без регистрации
Золото ЗОЛОТАЯ РАЗДАЧА! СКАЧАННОЕ НЕ ЗАСЧИТЫВАЕТСЯ! Золото
Дата: Зарегистрирован   [ Тип: внутренний ] Как тут cкачать?
MAGNET ссылка
MAGNET ссылка


Скачать .torrent

100 KB

Статус: проверено DHT
Скачан: торрент - 175 раз, раздача полностью - 15 раз
Размер: 19,21 GB
Оценка:  - (Голосов: 0)
Поблагодарили: 0
Поделиться ссылкой на эту раздачу с друзьями:
В контактеFacebookОдноклассникиTwitterLivejournalМой МирLiveinternet
 

 

МихаНЕзатор

[] 

Раздача обновлена
 
Показать сообщения:    


Вы не можете начинать темы
Вы не можете отвечать на сообщения
Вы не можете редактировать свои сообщения
Вы не можете удалять свои сообщения
Вы не можете голосовать в опросах
Вы не можете прикреплять файлы к сообщениям
Вы можете скачивать файлы