Loading...
Error

Скачать Авалон / Avalon (Барри Левинсон) [1990, драма, DVDRip] [MVO]+[AVO]+[Оригинал]+[Sub] торрент без регистрации

 
Статистика раздачи
Размер:  2,21 GB   |    Скачан:  103 раза
Сидов:  1  [  0 KB/s  ]  
 
Автор Сообщение

Marsianka

[] 

Год выпуска: 1990
Страна: США
Жанр: драма
Продолжительность: 02:07:41
Перевод: Профессиональный (многоголосый, закадровый) 5-й канал, авторский (одноголосый) А.Гаврилов, А.Михалев
Оригинальная аудиодорожка: английский
Cубтитры: английский

Режиссер: Барри Левинсон / Barry Levinson

В ролях: Армин Мюллер-Шталь / Armin Mueller-Stahl, Элизабет Перкинс / Elizabeth Perkins, Джоан Плоурайт / Joan Plowright, Эйдан Куинн / Aidan Quinn, Кевин Поллак / Kevin Pollak, Лу Джейкоби / Lou Jacobi, Лео Фукс / Leo Fuchs, Ив Гордон / Eve Gordon, Элайджа Вуд /Elijah Wood, Израэл Рубинек / Israel Rubinek...

Описание: История нескольких поколений семьи Кречинских евреев, в начале XX века эмигрировавших из России в Америку в поисках лучшей жизни и осевших в Балтиморе. Как и в любой другой семье, здесь были радости и горести, успехи и поражения, трагедии и счастливые мгновения Национальное нежелание унывать и жизнерадостность вопреки обстоятельствам жизни, будучи соединёнными с американским наступательным оптимизмом, рождают колоритные характеры, своеобычную среду обитания и оригинальные нравы, за которыми интересно наблюдать...

Исходник: DVD9 (custom)
Тип релиза: DVDRip
Контейнер: AVI

Видео: 704x384 (1.85:1), 25.000 fps, XviD ~ 1675 kbps avg, 0.258 bit/pixel
Аудио 1: Русский (Dolby AC3, 2 ch) 192 kbps, 48 khz, MVO (5 канал), спасибо dmitry2264
Аудио 2: Русский (Dolby AC3, 2 ch) 192 kbps, 48 khz, А.Гаврилов
Аудио 3: Русский (Dolby AC3, 2 ch) 192 kbps, 48 khz, А.Михалев
Аудио 4: Английский (Dolby AC3, 2 ch) 192 kbps, 48 khz
Формат субтитров: SoftSub (srt)
Раздача от:

4 июля 1914 года еврей Самуил Кричинский прибыл из Польши в Америку, а именно в Балтимор, по наивности иммигранта приняв салют и праздничную атмосферу в городе по случаю Дня независимости США за добрый знак удачи и обещание почти райского благополучия. Фильм прослеживает дальнейшую судьбу самого Сэма, сократившего собственное имя, но мало приспособившегося к американской жизни, а также его предприимчивых сына и племянника Майкла и Джулса Кей, которые были близки к осуществлению «великой американской мечты», но из-за коварства фортуны познали крах. Также действуют многочисленные родственники, которые занудно-забавно выясняют отношения во время традиционного ужина в День благодарения с непременной индейкой на столе, а беззаботные юные отпрыски терпеливо выслушивают в очередной раз воспоминания деда о своём явлении в Новый Свет

1991 - Оскар.
Номинации (4):
Лучший сценарий / Лучшая работа оператора / Лучшие костюмы / Лучший оригинальный саундтрек
1991 - Золотой глобус.
Номинации (3):
Лучший фильм (драма) / Лучший сценарий / Лучший саундтрек

Общее
Полное имя : Avalon.1990.P.DVDRip_[Youtracker]_by_avproh.avi
Формат : AVI
Формат/Информация : Audio Video Interleave
Профиль формата : OpenDML
Размер файла : 2,21 Гбайт
Продолжительность : 2 ч. 7 м.
Общий поток : 2473 Кбит/сек
Программа кодирования : VirtualDubMod 1.5.10.3 (build 2550/release)
Библиотека кодирования : VirtualDubMod build 2550/release

Видео
Идентификатор : 0
Формат : MPEG-4 Visual
Профиль формата : Advanced Simple@L5
Параметр BVOP формата : 1
Параметр QPel формата : Нет
Параметр GMC формата : Без точки перехода
Параметр матрицы формата : Выборочная
Идентификатор кодека : XVID
Идентификатор кодека/Подсказка : XviD
Продолжительность : 2 ч. 7 м.
Битрейт : 1675 Кбит/сек
Ширина : 704 пикселя
Высота : 384 пикселя
Соотношение сторон : 1,85:1
Частота кадров : 23,976 кадра/сек
Цветовое пространство : YUV
Субдискретизация насыщенности : 4:2:0
Битовая глубина : 8 бит
Тип развёртки : Прогрессивная
Метод сжатия : С потерями
Бит/(Пиксели*Кадры) : 0.258
Размер потока : 1,49 Гбайт (68%)
Библиотека кодирования : XviD 65

Аудио #1
Идентификатор : 1
Формат : AC-3
Формат/Информация : Audio Coding 3
Расширение режима : CM (complete main)
Параметр Endianness формата : Big
Идентификатор кодека : 2000
Продолжительность : 2 ч. 7 м.
Вид битрейта : Постоянный
Битрейт : 192 Кбит/сек
Каналы : 2 канала
Расположение каналов : Front: L R
Частота : 48,0 КГц
Битовая глубина : 16 бит
Метод сжатия : С потерями
Размер потока : 175 Мбайт (8%)
Выравнивание : Разделение по промежуткам
Продолжительность промежутка : 42 мс. (1,00 видеокадр)
Время предзагрузки промежутка : 500 мс.

Аудио #2
Идентификатор : 2
Формат : AC-3
Формат/Информация : Audio Coding 3
Расширение режима : CM (complete main)
Параметр Endianness формата : Big
Идентификатор кодека : 2000
Продолжительность : 2 ч. 7 м.
Вид битрейта : Постоянный
Битрейт : 192 Кбит/сек
Каналы : 2 канала
Расположение каналов : Front: L R
Частота : 48,0 КГц
Битовая глубина : 16 бит
Метод сжатия : С потерями
Размер потока : 175 Мбайт (8%)
Выравнивание : Разделение по промежуткам
Продолжительность промежутка : 42 мс. (1,00 видеокадр)
Время предзагрузки промежутка : 500 мс.

Аудио #3
Идентификатор : 3
Формат : AC-3
Формат/Информация : Audio Coding 3
Расширение режима : CM (complete main)
Параметр Endianness формата : Big
Идентификатор кодека : 2000
Продолжительность : 2 ч. 7 м.
Вид битрейта : Постоянный
Битрейт : 192 Кбит/сек
Каналы : 2 канала
Расположение каналов : Front: L R
Частота : 48,0 КГц
Битовая глубина : 16 бит
Метод сжатия : С потерями
Размер потока : 175 Мбайт (8%)
Выравнивание : Разделение по промежуткам
Продолжительность промежутка : 42 мс. (1,00 видеокадр)
Время предзагрузки промежутка : 500 мс.

Аудио #4
Идентификатор : 4
Формат : AC-3
Формат/Информация : Audio Coding 3
Профиль формата : Dolby Digital
Расширение режима : CM (complete main)
Параметр Endianness формата : Big
Идентификатор кодека : 2000
Продолжительность : 2 ч. 7 м.
Вид битрейта : Постоянный
Битрейт : 192 Кбит/сек
Каналы : 2 канала
Расположение каналов : Front: L R
Частота : 48,0 КГц
Битовая глубина : 16 бит
Метод сжатия : С потерями
Размер потока : 175 Мбайт (8%)
Выравнивание : Разделение по промежуткам
Продолжительность промежутка : 42 мс. (1,00 видеокадр)
Время предзагрузки промежутка : 500 мс.



Скачать Авалон.Avalon.(Барри.Левинсон).[1990.драма.DVDRip].[MVO]+[AVO]+[Оригинал]+[Sub].torrent без регистрации
Золото ЗОЛОТАЯ РАЗДАЧА! СКАЧАННОЕ НЕ ЗАСЧИТЫВАЕТСЯ! Золото
Дата: Зарегистрирован   [ Тип: внутренний ] Как тут cкачать?
MAGNET ссылка
MAGNET ссылка


Скачать .torrent

12 KB

Статус: проверено DHT
Скачан: торрент - 103 раз, раздача полностью - 12 раз
Размер: 2,21 GB
Оценка:  - (Голосов: 0)
Поблагодарили: 2
Поделиться ссылкой на эту раздачу с друзьями:
В контактеFacebookОдноклассникиTwitterLivejournalМой МирLiveinternet
 

 
Показать сообщения:    


Вы не можете начинать темы
Вы не можете отвечать на сообщения
Вы не можете редактировать свои сообщения
Вы не можете удалять свои сообщения
Вы не можете голосовать в опросах
Вы не можете прикреплять файлы к сообщениям
Вы можете скачивать файлы