Loading...
Error

Скачать Один уходит - другой остается / L'un reste, l'autre part (Клод Берри) [2005, драма, комедия, DVDRip] [MVO] торрент без регистрации

 
Статистика раздачи
Размер:  745 MB   |    Скачан:  100 раз
Сидов:  1  [  0 KB/s  ]  
 
Автор Сообщение

Marsianka

[] 

Страна: Франция
Производство: Canal+ [fr], Centre National de la Cin™matographie (CNC), Hirsch, Path™ Renn Productions, TF1 Films Production
Жанр: драма, комедия
Год выпуска: 2005
Продолжительность: 1:34:04

Перевод: Профессиональный (многоголосый, закадровый)
Оригинальная аудиодорожка: нет
Cубтитры: нет

Режиссер: Клод Берри / Claude Berri

В ролях: Шарлотта Генсбур, Даниель Отой, Натали Бэй, Пьер Ардити, Миу-Миу, Лор Дютийёль, Айсса Майга, Ноэми Львовски, Николас Лебовичи, Николас Шойе...

Описание:
Парижские антиквары Даниэль и Ален женаты почти двадцать лет. И вот, устав от однообразия семейной жизни, друзья отправляются на поиски приключений. Даниэль знакомится с утончённой и романтичной Жудит, а Ален влюбляется в знойную красавицу Фариду.
Дело зашло так далеко, что ради новых возлюбленных друзья готовы даже расстаться с жёнами. Наступает момент, когда любовь, страсть и чувство вины заставляют Даниэля и Алена разрешить сомнения и изменить свою жизнь.
Остаться или уйти? Каждый должен сделать свой выбор...


Исходник: DVD5 R5
Тип релиза: DVDRip
Контейнер: AVI

Видео: 672x288 (2,35:1), 25 fps, XviD ~ 970 kbps avg, 0.200 bit/pixel
Аудио: 48 kHz, Dolby MP3 2.0, 128 kbps

Раздача от:

Общее
Полное имя : Odin.uhoditdrugoj.ostaetsja.2005.DVDRip-745_[Youtracker]_by_AVP Studio.avi
Формат : AVI
Формат/Информация : Audio Video Interleave
Размер файла : 745 Мбайт
Продолжительность : 1 ч. 34 м.
Общий поток : 1107 Кбит/сек
Программа кодирования : VirtualDubMod 1.5.10.3 | www.virtualdub-fr.org || (build 2550/release)
Библиотека кодирования : VirtualDubMod build 2550/release

Видео
Идентификатор : 0
Формат : MPEG-4 Visual
Профиль формата : Advanced Simple@L5
Параметр BVOP формата : 1
Параметр QPel формата : Нет
Параметр GMC формата : Без точки перехода
Параметр матрицы формата : Выборочная
Идентификатор кодека : XVID
Идентификатор кодека/Подсказка : XviD
Продолжительность : 1 ч. 34 м.
Битрейт : 970 Кбит/сек
Ширина : 672 пикселя
Высота : 288 пикселей
Соотношение сторон : 2,35:1
Частота кадров : 25,000 кадров/сек
Цветовое пространство : YUV
Субдискретизация насыщенности : 4:2:0
Битовая глубина : 8 бит
Тип развёртки : Прогрессивная
Метод сжатия : С потерями
Бит/(Пиксели*Кадры) : 0.200
Размер потока : 652 Мбайт (88%)
Библиотека кодирования : XviD 65

Аудио
Идентификатор : 1
Формат : MPEG Audio
Версия формата : Version 1
Профиль формата : Layer 3
Идентификатор кодека : 55
Идентификатор кодека/Подсказка : MP3
Продолжительность : 1 ч. 34 м.
Вид битрейта : Постоянный
Битрейт : 128 Кбит/сек
Каналы : 2 канала
Частота : 48,0 КГц
Метод сжатия : С потерями
Размер потока : 86,1 Мбайт (12%)
Выравнивание : Соединение по промежуткам
Продолжительность промежутка : 40 мс. (1,00 видеокадр)
Время предзагрузки промежутка : 504 мс.
Библиотека кодирования : L3.99r
Настройки программы : -m s -V 4 -q 2 -lowpass 17 -b 128



Скачать Один.уходит.-.другой.остается.L'un.reste.l'autre.part.(Клод.Берри).[2005.драма.комедия.DVDRip].[MVO].torrent без регистрации
Золото ЗОЛОТАЯ РАЗДАЧА! СКАЧАННОЕ НЕ ЗАСЧИТЫВАЕТСЯ! Золото
Дата: Зарегистрирован   [ Тип: внутренний ] Как тут cкачать?
MAGNET ссылка
MAGNET ссылка


Скачать .torrent

15 KB

Статус: проверено DHT
Скачан: торрент - 100 раз, раздача полностью - 8 раз
Размер: 745 MB
Оценка:  - (Голосов: 0)
Поблагодарили: 0
Поделиться ссылкой на эту раздачу с друзьями:
В контактеFacebookОдноклассникиTwitterLivejournalМой МирLiveinternet
 

 
Показать сообщения:    


Вы не можете начинать темы
Вы не можете отвечать на сообщения
Вы не можете редактировать свои сообщения
Вы не можете удалять свои сообщения
Вы не можете голосовать в опросах
Вы не можете прикреплять файлы к сообщениям
Вы можете скачивать файлы