Loading...
Error

Скачать Абсолютная власть / Absolute Power (Клинт Иствуд) [1997, детектив, триллер, BDRip-AVC] [AVO]+[Sub] торрент без регистрации

 
Статистика раздачи
Размер:  2,57 GB   |    Скачан:  115 раз
Сидов:  1  [  0 KB/s  ]  
 
Автор Сообщение

Marsianka

[] 

Информация о фильме
Название: Абсолютная власть
Оригинальное название: Absolute Power
Год выхода: 1997
Жанр: детектив, триллер
Режиссер: Клинт Иствуд
В ролях: Клинт Иствуд, Кен Уэлш, Пенни Джонсон, Мелора Хардин, Элисон Иствуд, Лора Линни, Марк Марголис, Ричард Дженкинс, Деннис Хэйсберт, Э. Г. Маршалл, Джин Хэкмен, Эд Харрис, Скотт Гленн, Джуди Дэвис

О фильме:
Лютер Уитни гениальный вор драгоценностей. Он свое отсидел еще тридцать лет назад. С тех пор не имел никаких дел с полицией. А тут «черт попутал». Основательно подготовившись, он забрался в роскошный особняк знаменитого филантропа Салливана и стянул женских украшений на многие-многие тысячи Но в этот момент в спальню вошли мужчина и женщина. Женщина Кристи, супруга Салливана, мужчина страшно подумать президент Соединенных Штатов Ричмонд! Уитни спрятался и наблюдал, как любовный флирт перерос в борьбу. Президент проявил склонность к садизму, а Кристи взялась за нож для резки бумаги и ранила партнера. В спальню ворвались охранники, и Кристи застрелили. К несчастью, Уитни не удалось остаться инкогнито, хотя он и сумел сбежать



Страна: США, Castle Rock Entertainment, Malpaso Productions
Продолжительность: 02:01:13
Перевод: Авторский одноголосый (А.Гаврилов)
Субтитры: Русские, английские
Дата релиза: 19.03.2013

Файл
Кодек: H.264
Качество: BDRip (AVC) (Blu-Ray Remux (1080p))
Видео: MPEG-4 AVC, 2199 Кбит/с, 1024x436
Звук: Русский (AC3, 6 ch, 384 Кбит/с), английский (AC3, 6 ch, 448 Кбит/с)
Общее
Уникальный идентификатор : 212245208179232274535438580894325543927 (0x9FACF0B0D9763B869570805124C813F7)
Полное имя : D:2Absoljutnaja.vlast.1997.x264.BDRip.(AVC).ExKinoRay.mkv
Формат : Matroska
Размер файла : 2,57 Гбайт
Продолжительность : 2 ч. 1 м.
Общий поток : 3031 Кбит/сек
Название фильма : Absoljutnaja.vlast.1997.x264.BDRip.(AVC).ExKinoRay
Дата кодирования : UTC 2013-03-19 04:27:42
Программа кодирования : mkvmerge v4.0.0 ('The Stars were mine') сборка от Jun 6 2010 16:18:42
Библиотека кодирования : libebml v1.0.0 + libmatroska v1.0.0

Видео
Идентификатор : 1
Формат : AVC
Формат/Информация : Advanced Video Codec
Профиль формата : High@L4.1
Параметр CABAC формата : Да
Параметр ReFrames формата : 8 кадров
Идентификатор кодека : V_MPEG4/ISO/AVC
Продолжительность : 2 ч. 1 м.
Битрейт : 2199 Кбит/сек
Ширина : 1024 пикс.
Высота : 426 пикс.
Соотношение сторон : 2,40:1
Частота кадров : 23,976 кадр/сек
Цветовое пространство : YUV
Подвыборка цветности : 4:2:0
Битовая глубина : 8 бит
Тип развёртки : Прогрессивная
Бит/(Пиксели*Кадры) : 0.210
Размер потока : 1,81 Гбайт (71%)
Заголовок : Rip by Enigma-Vladislav71
Библиотека кодирования : x264 core 129 r2245 bc13772
Настройки программы : cabac=1 / ref=8 / deblock=1:-2:-2 / analyse=0x3:0x133 / me=umh / subme=11 / psy=1 / psy_rd=1.00:0.00 / mixed_ref=1 / me_range=48 / chroma_me=1 / trellis=2 / 8x8dct=1 / cqm=0 / deadzone=21,11 / fast_pskip=0 / chroma_qp_offset=-2 / threads=3 / lookahead_threads=1 / sliced_threads=0 / nr=0 / decimate=0 / interlaced=0 / bluray_compat=0 / constrained_intra=0 / bframes=8 / b_pyramid=2 / b_adapt=2 / b_bias=0 / direct=3 / weightb=1 / open_gop=0 / weightp=2 / keyint=240 / keyint_min=23 / scenecut=40 / intra_refresh=0 / rc_lookahead=40 / rc=2pass / mbtree=1 / bitrate=2199 / ratetol=1.0 / qcomp=0.60 / qpmin=10 / qpmax=51 / qpstep=4 / cplxblur=20.0 / qblur=0.5 / ip_ratio=1.40 / aq=2:1.00
Язык : English

Аудио #1
Идентификатор : 2
Формат : AC-3
Формат/Информация : Audio Coding 3
Расширение режима : CM (complete main)
Идентификатор кодека : A_AC3
Продолжительность : 2 ч. 1 м.
Вид битрейта : Постоянный
Битрейт : 384 Кбит/сек
Каналы : 6 каналов
Расположение каналов : Front: L C R, Side: L R, LFE
Частота : 48,0 КГц
Битовая глубина : 16 бит
Метод сжатия : С потерями
Размер потока : 333 Мбайт (13%)
Заголовок : Авторский одноголосый (А.Гаврилов)
Язык : Russian

Аудио #2
Идентификатор : 3
Формат : AC-3
Формат/Информация : Audio Coding 3
Расширение режима : CM (complete main)
Идентификатор кодека : A_AC3
Продолжительность : 2 ч. 1 м.
Вид битрейта : Постоянный
Битрейт : 448 Кбит/сек
Каналы : 6 каналов
Расположение каналов : Front: L C R, Side: L R, LFE
Частота : 48,0 КГц
Битовая глубина : 16 бит
Метод сжатия : С потерями
Размер потока : 388 Мбайт (15%)
Заголовок : Английский
Язык : English

Текст #1
Идентификатор : 4
Формат : UTF-8
Идентификатор кодека : S_TEXT/UTF8
Идентификатор кодека/Информация : UTF-8 Plain Text
Язык : Russian

Текст #2
Идентификатор : 5
Формат : UTF-8
Идентификатор кодека : S_TEXT/UTF8
Идентификатор кодека/Информация : UTF-8 Plain Text
Язык : English

Меню
00:00:00.000 : en:Chapter 01
00:03:43.264 : en:Chapter 02
00:08:17.079 : en:Chapter 03
00:12:19.363 : en:Chapter 04
00:15:39.855 : en:Chapter 05
00:19:20.033 : en:Chapter 06
00:21:08.016 : en:Chapter 07
00:23:48.885 : en:Chapter 08
00:27:02.912 : en:Chapter 09
00:32:51.844 : en:Chapter 10
00:35:58.906 : en:Chapter 11
00:39:37.583 : en:Chapter 12
00:43:06.750 : en:Chapter 13
00:47:29.513 : en:Chapter 14
00:49:59.621 : en:Chapter 15
00:53:21.156 : en:Chapter 16
00:54:57.752 : en:Chapter 17
00:56:36.267 : en:Chapter 18
01:01:52.917 : en:Chapter 19
01:05:26.047 : en:Chapter 20
01:08:05.706 : en:Chapter 21
01:13:52.970 : en:Chapter 22
01:16:45.142 : en:Chapter 23
01:22:17.390 : en:Chapter 24
01:25:35.839 : en:Chapter 25
01:31:43.539 : en:Chapter 26
01:36:09.555 : en:Chapter 27
01:37:51.365 : en:Chapter 28
01:40:42.911 : en:Chapter 29
01:45:08.969 : en:Chapter 30
01:47:23.645 : en:Chapter 31
01:50:07.350 : en:Chapter 32
01:53:09.282 : en:Chapter 33
01:55:19.120 : en:Chapter 34
01:57:06.019 : en:Chapter 35
Семпл Релиз от:

Авторы релиза:



Скачать Абсолютная.власть.Absolute.Power.(Клинт.Иствуд).[1997.детектив.триллер.BDRip-AVC].[AVO]+[Sub].torrent без регистрации
Золото ЗОЛОТАЯ РАЗДАЧА! СКАЧАННОЕ НЕ ЗАСЧИТЫВАЕТСЯ! Золото
Дата: Зарегистрирован   [ Тип: внутренний ] Как тут cкачать?
MAGNET ссылка
MAGNET ссылка


Скачать .torrent

13 KB

Статус: проверено DHT
Скачан: торрент - 115 раз, раздача полностью - 10 раз
Размер: 2,57 GB
Оценка:  - (Голосов: 0)
Поблагодарили: 1
Поделиться ссылкой на эту раздачу с друзьями:
В контактеFacebookОдноклассникиTwitterLivejournalМой МирLiveinternet
 

 
Показать сообщения:    


Вы не можете начинать темы
Вы не можете отвечать на сообщения
Вы не можете редактировать свои сообщения
Вы не можете удалять свои сообщения
Вы не можете голосовать в опросах
Вы не можете прикреплять файлы к сообщениям
Вы можете скачивать файлы