Loading...
Error

Скачать Хиллсборо / Hillsborough (Чарльз МакДугалл) [1996, драма, спорт, PDTVRip] [MVO] торрент без регистрации

 
Статистика раздачи
Размер:  1,45 GB   |    Скачан:  102 раза

Полного источника не было: 25 минут

 
Автор Сообщение

Marsianka

[] 

Название: Хиллсборо
Оригинальное название: Hillsborough
Год выпуска: 1996
Жанр: драма, спорт
Режиссер: Чарльз МакДугалл
В ролях: Трэйси Уилкинсон, Кевин Кнапман, Марк Вомак, Сара Грэхэм, Anna Martland, Аннабелл Эпсион, Кристофер Экклстон, Стивен Уолтерс, Скот Уильямс, Рэйчел Дейвис

Описание: Драма, основанная на реальных событиях, произошедших 15 апреля 1989 года. В тот день 96 болельщиков Ливерпуля было задавлено до смерти во время полуфинального матча Кубка Англии по футболу против Ноттингем Форрест. Фильм показывает 3 семьи ливерпудлианцев до игры, во время трагедии и последующих судебных прений, в которых решалось, кто виноват и что же пошло не так.
Спустя почти 24 года после трагедии полиция, ответственная за прикрытие тайны трагедии в Хиллсбро, наконец признала, что кровь невиновных на их руках. Полиция пыталась скрыть свои чудовищные ошибки, смешивая фанатов Ливерпуля с грязью, обрушивая на них весь гнев, фальсифицируя отчеты. Также независимой комиссией обнародованы выводы, что 24 жертвы финала кубка Англии 1989 года можно было бы спасти, если бы аварийные службы действовали быстрее.

В отчете независимой комиссии, говорится:
* До 164 заявлений от офицеров были подделаны или изменены чтобы переложить вину с полиции на невиновных со 116 потенциально опасные комментарии удалены.
* у пострадавших болельщиков, в том числе детей в возрасте 10 лет, сразу же после случившегося взяли кровь на наличие алкоголя, чтобы попытаться показать, что они были пьяны, и вышли из-под контроля. А также были сделаны проверки на предмет наличия у пострадавших судимостей, чтобы было чем поставить под сомнение их репутацию.
* Ирвин Пэтник и старшие офицеры передали лживые сведения в Шеффилдское новостное агентство опубликованное потом в журнале the Sun что фанаты мародерствовали на месте трагедии и мочились на полиц

+ видеокадры трагедии Match of the day 15.04.1989 Hillsborough Disaster (англ)
+ выпуск новостей ITV от 5 декабря 1996 г. с рассказом о фильме и трагедии Хиллсборо (на 10 минуте выпуска) (англ)




Страна: Великобритания
Продолжительность: 01:36:48
Перевод: Профессиональный (многоголосый, закадровый) - Baibako
Субтитры: Нет

Перевод: Татьяна Saavick и Янина Галицкая
Озвучка: Светлана Доманова, Татьяна Оболевич, Олекса Мельник и Александр Фурман
Монтаж: Павел Дежин
Обложка: Татьяна Saavick

Качество: PDTVRip
Формат: AVI
Видео: XviD, 1018 Кбит/сек, 624x352, 25,000 кадров/сек
Аудио rus: MP3, 2 ch, 192 Кбит/сек
Аудио eng: MP3, 2 ch, 128 Кбит/сек
Общее
Полное имя : D:Hillsborough.1996.PDTVRip.BaibaKo.tvHillsborough.1996.PDTVRip.Rus.Eng.BaibaKo.tv.avi
Формат : AVI
Формат/Информация : Audio Video Interleave
Размер файла : 936 Мбайт
Продолжительность : 1 ч. 36 м.
Общий поток : 1352 Кбит/сек
Программа кодирования : VirtualDubMod 1.5.10.2 (build 2542/release)
Библиотека кодирования : VirtualDubMod build 2542/release

Видео
Идентификатор : 0
Формат : MPEG-4 Visual
Профиль формата : Advanced Simple@L5
Параметр BVOP формата : 1
Параметр QPel формата : Нет
Параметр GMC формата : Без точки перехода
Параметр матрицы формата : Default (H.263)
Режим смешивания : Сжатый битовый поток
Идентификатор кодека : XVID
Идентификатор кодека/Подсказка : XviD
Продолжительность : 1 ч. 36 м.
Битрейт : 1018 Кбит/сек
Ширина : 624 пикс.
Высота : 352 пикс.
Соотношение сторон : 16:9
Частота кадров : 25,000 кадр/сек
Цветовое пространство : YUV
Подвыборка цветности : 4:2:0
Битовая глубина : 8 бит
Тип развёртки : Прогрессивная
Метод сжатия : С потерями
Бит/(Пиксели*Кадры) : 0.185
Размер потока : 705 Мбайт (75%)
Библиотека кодирования : XviD 1.1.2 (UTC 2006-11-01)

Аудио #1
Идентификатор : 1
Формат : MPEG Audio
Версия формата : Version 1
Профиль формата : Layer 3
Режим : Joint stereo
Расширение режима : MS Stereo
Идентификатор кодека : 55
Идентификатор кодека/Подсказка : MP3
Продолжительность : 1 ч. 36 м.
Вид битрейта : Постоянный
Битрейт : 192 Кбит/сек
Каналы : 2 канала
Частота : 48,0 КГц
Метод сжатия : С потерями
Размер потока : 133 Мбайт (14%)
Выравнивание : Соединение по промежуткам
Продолжительность промежутка : 40 мс. (1,00 видеокадр)
Время предзагрузки промежутка : 504 ms
Библиотека кодирования : LAME3.99r
Настройки программы : -m j -V 4 -q 2 -lowpass 18.6 -b 192

Аудио #2
Идентификатор : 2
Формат : MPEG Audio
Версия формата : Version 1
Профиль формата : Layer 3
Режим : Joint stereo
Расширение режима : MS Stereo
Идентификатор кодека : 55
Идентификатор кодека/Подсказка : MP3
Продолжительность : 1 ч. 36 м.
Вид битрейта : Переменный
Битрейт : 128 Кбит/сек
Каналы : 2 канала
Частота : 48,0 КГц
Метод сжатия : С потерями
Размер потока : 86,0 Мбайт (9%)
Выравнивание : Соединение по промежуткам
Продолжительность промежутка : 24 мс. (0,60 видеокадр)
Время предзагрузки промежутка : 522 ms
Библиотека кодирования : LAME3.90.
Настройки программы : -m j -V 4 -q 2 -lowpass 17.6 --abr 128

Качество: PDTVRip
Формат: MPEG-4
Видео: AVC, 841 Кбит/сек, 488x368,
Аудио eng: MP3, 2 ch, 320 Кбит/сек
Продолжительность: 00:32:00 Качество: PDTVRip
Формат: MPEG-4
Видео: AVC, 1000 Кбит/сек, 704x528
Аудио eng: MP3, 2 ch, 153 Кбит/сек
Продолжительность: 00:32:00



МИОбщее
Полное имя : D:Hillsborough.1996.PDTVRip.BaibaKo.tvMatch of the day 15.04.1989 Hillsborough Disaster.m4v
Формат : MPEG-4
Профиль формата : Base Media / Version 2
Идентификатор кодека : mp42
Размер файла : 269 Мбайт
Продолжительность : 32 м.
Общий поток : 1163 Кбит/сек
Жанр : Football
Дата кодирования : UTC 2012-09-13 10:48:46
Дата пометки : UTC 2012-09-13 10:59:52
Программа кодирования : HandBrake 0.9.8 2012071800

Видео
Идентификатор : 1
Формат : AVC
Формат/Информация : Advanced Video Codec
Профиль формата : Main@L2.1
Параметр CABAC формата : Да
Параметр ReFrames формата : 4 кадра
Идентификатор кодека : avc1
Идентификатор кодека/Информация : Advanced Video Coding
Продолжительность : 32 м.
Вид битрейта : Переменный
Битрейт : 841 Кбит/сек
Ширина : 488 пикс.
Высота : 368 пикс.
Соотношение сторон : 4:3
Режим частоты кадров : Постоянный
Частота кадров : 25,000 кадр/сек
Цветовое пространство : YUV
Подвыборка цветности : 4:2:0
Битовая глубина : 8 бит
Тип развёртки : Прогрессивная
Бит/(Пиксели*Кадры) : 0.187
Размер потока : 195 Мбайт (72%)
Библиотека кодирования : x264 core 120
Настройки программы : cabac=1 / ref=1 / deblock=1:0:0 / analyse=0x1:0x111 / me=hex / subme=2 / psy=1 / psy_rd=1.00:0.00 / mixed_ref=0 / me_range=16 / chroma_me=1 / trellis=0 / 8x8dct=0 / cqm=0 / deadzone=21,11 / fast_pskip=1 / chroma_qp_offset=0 / threads=3 / sliced_threads=0 / nr=0 / decimate=1 / interlaced=0 / bluray_compat=0 / constrained_intra=0 / bframes=3 / b_pyramid=2 / b_adapt=1 / b_bias=0 / direct=1 / weightb=1 / open_gop=0 / weightp=1 / keyint=250 / keyint_min=25 / scenecut=40 / intra_refresh=0 / rc_lookahead=10 / rc=crf / mbtree=1 / crf=20.0 / qcomp=0.60 / qpmin=3 / qpmax=69 / qpstep=4 / ip_ratio=1.40 / aq=1:1.00
Дата кодирования : UTC 2012-09-13 10:48:46
Дата пометки : UTC 2012-09-13 10:59:52
Основные цвета : BT.601-6 525, BT.1358 525, BT.1700 NTSC, SMPTE 170M
Характеристики трансфера : BT.709-5, BT.1361
Коэффициенты матрицы : BT.601-6 525, BT.1358 525, BT.1700 NTSC, SMPTE 170M

Аудио
Идентификатор : 2
Формат : MPEG Audio
Версия формата : Version 1
Профиль формата : Layer 3
Идентификатор кодека : 69
Продолжительность : 32 м.
Вид битрейта : Переменный
Битрейт : 320 Кбит/сек
Каналы : 2 канала
Частота : 48,0 КГц
Метод сжатия : С потерями
Размер потока : 73,5 Мбайт (27%)
Библиотека кодирования : LAME3.98ґґґґґґґґґґґґ
Дата кодирования : UTC 2012-09-13 10:48:46
Дата пометки : UTC 2012-09-13 10:59:52

Общее
Полное имя : D:Hillsborough.1996.PDTVRip.BaibaKo.tvNews at Ten 5th December 1996 mp3.m4v
Формат : MPEG-4
Профиль формата : Base Media / Version 2
Идентификатор кодека : mp42
Размер файла : 276 Мбайт
Продолжительность : 33 м.
Общий поток : 1157 Кбит/сек
Дата кодирования : UTC 2012-10-12 18:39:26
Дата пометки : UTC 2012-10-12 18:44:47
Программа кодирования : HandBrake 0.9.8 2012071800

Видео
Идентификатор : 1
Формат : AVC
Формат/Информация : Advanced Video Codec
Профиль формата : Main@L3.0
Параметр CABAC формата : Да
Параметр ReFrames формата : 4 кадра
Идентификатор кодека : avc1
Идентификатор кодека/Информация : Advanced Video Coding
Продолжительность : 33 м.
Вид битрейта : Переменный
Битрейт : 1000 Кбит/сек
Ширина : 704 пикс.
Высота : 528 пикс.
Соотношение сторон : 4:3
Режим частоты кадров : Переменный
Частота кадров : 25,000 кадр/сек
Минимальная частота кадров : 8,333 кадр/сек
Максимальная частота кадров : 25,000 кадр/сек
Цветовое пространство : YUV
Подвыборка цветности : 4:2:0
Битовая глубина : 8 бит
Тип развёртки : Прогрессивная
Бит/(Пиксели*Кадры) : 0.108
Размер потока : 239 Мбайт (86%)
Библиотека кодирования : x264 core 120
Настройки программы : cabac=1 / ref=1 / deblock=1:0:0 / analyse=0x1:0x111 / me=hex / subme=2 / psy=1 / psy_rd=1.00:0.00 / mixed_ref=0 / me_range=16 / chroma_me=1 / trellis=0 / 8x8dct=0 / cqm=0 / deadzone=21,11 / fast_pskip=1 / chroma_qp_offset=0 / threads=12 / sliced_threads=0 / nr=0 / decimate=1 / interlaced=0 / bluray_compat=0 / constrained_intra=0 / bframes=3 / b_pyramid=2 / b_adapt=1 / b_bias=0 / direct=1 / weightb=1 / open_gop=0 / weightp=1 / keyint=250 / keyint_min=25 / scenecut=40 / intra_refresh=0 / rc_lookahead=10 / rc=2pass / mbtree=1 / bitrate=1000 / ratetol=1.0 / qcomp=0.60 / qpmin=3 / qpmax=69 / qpstep=4 / cplxblur=20.0 / qblur=0.5 / ip_ratio=1.40 / aq=1:1.00
Дата кодирования : UTC 2012-10-12 18:39:26
Дата пометки : UTC 2012-10-12 18:44:47
Основные цвета : BT.601-6 525, BT.1358 525, BT.1700 NTSC, SMPTE 170M
Характеристики трансфера : BT.709-5, BT.1361
Коэффициенты матрицы : BT.601-6 525, BT.1358 525, BT.1700 NTSC, SMPTE 170M

Аудио
Идентификатор : 2
Формат : MPEG Audio
Версия формата : Version 1
Профиль формата : Layer 3
Идентификатор кодека : 69
Продолжительность : 33 м.
Вид битрейта : Переменный
Битрейт : 153 Кбит/сек
Максимальный битрейт : 167 Кбит/сек
Каналы : 2 канала
Частота : 48,0 КГц
Метод сжатия : С потерями
Размер потока : 36,4 Мбайт (13%)
Дата кодирования : UTC 2012-10-12 18:39:26
Дата пометки : UTC 2012-10-12 18:44:46

Текст
Идентификатор : 3
Формат : Apple text
Идентификатор кодека : text
Продолжительность : 33 м.
Вид битрейта : Постоянный
Битрейт : 2 бит/сек
Размер потока : 600 байт (0%)
Дата кодирования : UTC 2012-10-12 18:39:26
Дата пометки : UTC 2012-10-12 18:44:47
Релиз от:



Скачать Хиллсборо.Hillsborough.(Чарльз.МакДугалл).[1996.драма.спорт.PDTVRip].[MVO].torrent без регистрации
Золото ЗОЛОТАЯ РАЗДАЧА! СКАЧАННОЕ НЕ ЗАСЧИТЫВАЕТСЯ! Золото
Дата: Зарегистрирован   [ Тип: внутренний ] Как тут cкачать?
MAGNET ссылка
MAGNET ссылка


Скачать .torrent

15 KB

Статус: проверено DHT
Скачан: торрент - 102 раз, раздача полностью - 1 раз
Размер: 1,45 GB
Оценка:  - (Голосов: 0)
Поблагодарили: 1
Поделиться ссылкой на эту раздачу с друзьями:
В контактеFacebookОдноклассникиTwitterLivejournalМой МирLiveinternet
 

 
Показать сообщения:    


Вы не можете начинать темы
Вы не можете отвечать на сообщения
Вы не можете редактировать свои сообщения
Вы не можете удалять свои сообщения
Вы не можете голосовать в опросах
Вы не можете прикреплять файлы к сообщениям
Вы можете скачивать файлы