Loading...
Error

Скачать Такова моя воля / Le bon plaisir (Франсис Жиро) [1984, драма, DVDRip-AVC] [MVO]+[Оригинал] торрент без регистрации

 
Статистика раздачи
Размер:  2,1 GB   |    Скачан:  111 раз
Сидов:  1  [  0 KB/s  ]  
 
Автор Сообщение

Marsianka

[] 

Страна: Франция
Жанр: драма
Год выпуска: 1984
Продолжительность: 01:42:55
Перевод: Профессиональный (многоголосый, закадровый) + Оригинальный

Режиссер: Франсис Жиро / Francis Girod

В ролях: Катрин Денёв (Claire Despr™s), Мишель Серро (Minister of the Interior), Жан-Луи Трентиньян (The President), Мишель Оклер (Herbert), Ипполит Жирардо (Pierre), Клод Винтер (The First Lady), Мэттью Пиллсбери (Mike), Александра Стюарт (Julie Hoffman), Джанин Дарси (Berthe), Жак Серей (Secretary of Foreign Affairs), Мишель Буарон (First Minister), Жак Дониоль-Валькроз (Lawyer)

Описание: Он - неврастеничный, мнительный, тщеславный и циничный президент Франции. Она - неотразимый и успешный дизайнер. Когда-то они были близки, но связь осталась тайной. Однажды июньским вечером неудачливый паренек, желая угодить любимой девушке, решается на грабеж - и стаскивает сумку с прекрасной незнакомки. В сумке Клэр оказывается письмо десятилетней давности от экс-любовника Кастора, в котором будущий президент страны, опасаясь развода с бесплодной женой, просит Клэр сделать аборт. Опасаясь непредсказуемых последствий, Клэр вынуждена обратится к президенту, который просит министра внутренних дел, а по совместительству и своего лучшего друга, лично решить проблему. Но ситуация выходит из-под контроля...



Семпл

Качество: DVDRip
Контейнер: MKV

Видео: AVC, 656x576 @ 954x576 (1.656), 2342 kbps, 25 fps, 0.248 bpp
Аудио 1: русский / AC3 / 5.1 / 48 kHz / 384 kbps
Аудио 2: французский / AC3 / 2.0 / 48 kHz / 192 kbps
Навигация по главам: есть

General
Unique ID : 234206195445514936664966005747006440855 (0xB03278F58F6F2A6992136DA347AE0597)
Complete name : C:TorrentMoja.Volja.DVDRipAVC.mkv
Format : Matroska
Format version : Version 2
File size : 2.10 GiB
Duration : 1h 42mn
Overall bit rate : 2 920 Kbps
Movie name : = Такова моя воля / Le Bon plaisir DVDRip by SC Kosmos =
Encoded date : UTC 2013-03-20 14:41:51
Writing application : mkvmerge v3.3.0 ('Language') gebaut am Mar 24 2010 14:59:24
Writing library : libebml v0.8.0 + libmatroska v0.9.0

Video
ID : 1
Format : AVC
Format/Info : Advanced Video Codec
Format profile : High@L4.1
Format settings, CABAC : Yes
Format settings, ReFrames : 12 frames
Codec ID : V_MPEG4/ISO/AVC
Duration : 1h 42mn
Bit rate : 2 342 Kbps
Width : 656 pixels
Height : 576 pixels
Display aspect ratio : 1.656
Original display aspect ratio : 1.657
Frame rate : 25.000 fps
Color space : YUV
Chroma subsampling : 4:2:0
Bit depth : 8 bits
Scan type : Progressive
Bits/(Pixel*Frame) : 0.248
Stream size : 1.64 GiB (78%)
Title : Такова моя воля / Le Bon plaisir DVDRip by SC Kosmos
Writing library : x264 core 130 r2273 b3065e6
Encoding settings : cabac=1 / ref=12 / deblock=1:-2:-2 / analyse=0x3:0x112 / me=umh / subme=11 / psy=1 / psy_rd=1.00:0.15 / mixed_ref=1 / me_range=32 / chroma_me=1 / trellis=2 / 8x8dct=1 / cqm=0 / deadzone=21,11 / fast_pskip=1 / chroma_qp_offset=-3 / threads=12 / lookahead_threads=1 / sliced_threads=0 / nr=0 / decimate=1 / interlaced=0 / bluray_compat=0 / constrained_intra=0 / bframes=12 / b_pyramid=2 / b_adapt=1 / b_bias=0 / direct=3 / weightb=1 / open_gop=0 / weightp=1 / keyint=250 / keyint_min=25 / scenecut=40 / intra_refresh=0 / rc=2pass / mbtree=0 / bitrate=2342 / ratetol=1.0 / qcomp=0.60 / qpmin=0 / qpmax=69 / qpstep=4 / cplxblur=20.0 / qblur=0.5 / ip_ratio=1.40 / pb_ratio=1.30 / aq=1:1.00
Language : French
Default : No
Forced : No

Audio #1
ID : 2
Format : AC-3
Format/Info : Audio Coding 3
Mode extension : CM (complete main)
Codec ID : A_AC3
Duration : 1h 42mn
Bit rate mode : Constant
Bit rate : 384 Kbps
Channel(s) : 6 channels
Channel positions : Front: L C R, Side: L R, LFE
Sampling rate : 48.0 KHz
Bit depth : 16 bits
Compression mode : Lossy
Delay relative to video : 240ms
Stream size : 283 MiB (13%)
Title : MVO
Language : Russian
Default : Yes
Forced : No

Audio #2
ID : 3
Format : AC-3
Format/Info : Audio Coding 3
Mode extension : CM (complete main)
Codec ID : A_AC3
Duration : 1h 42mn
Bit rate mode : Constant
Bit rate : 192 Kbps
Channel(s) : 2 channels
Channel positions : Front: L R
Sampling rate : 48.0 KHz
Bit depth : 16 bits
Compression mode : Lossy
Delay relative to video : 238ms
Stream size : 141 MiB (7%)
Language : French
Default : No
Forced : No

Menu
00:00:00.000 : en:Chapter 01
00:07:20.960 : en:Chapter 02
00:12:55.840 : en:Chapter 03
00:23:17.760 : en:Chapter 04
00:32:50.280 : en:Chapter 05
00:39:48.880 : en:Chapter 06
00:48:23.680 : en:Chapter 07
00:55:39.960 : en:Chapter 08
01:04:30.360 : en:Chapter 09
01:17:58.960 : en:Chapter 10
01:29:53.440 : en:Chapter 11
01:40:36.680 : en:Chapter 12
01:42:53.960 : en:Chapter 13
01:42:54.480 : en:Chapter 14



Скачать Такова.моя.воля.Le.bon.plaisir.(Франсис.Жиро).[1984.драма.DVDRip-AVC].[MVO]+[Оригинал].torrent без регистрации
Золото ЗОЛОТАЯ РАЗДАЧА! СКАЧАННОЕ НЕ ЗАСЧИТЫВАЕТСЯ! Золото
Дата: Зарегистрирован   [ Тип: внутренний ] Как тут cкачать?
MAGNET ссылка
MAGNET ссылка


Скачать .torrent

11 KB

Статус: проверено DHT
Скачан: торрент - 111 раз, раздача полностью - 3 раз
Размер: 2,1 GB
Оценка:  - (Голосов: 0)
Поблагодарили: 1
Поделиться ссылкой на эту раздачу с друзьями:
В контактеFacebookОдноклассникиTwitterLivejournalМой МирLiveinternet
 

 
Показать сообщения:    


Вы не можете начинать темы
Вы не можете отвечать на сообщения
Вы не можете редактировать свои сообщения
Вы не можете удалять свои сообщения
Вы не можете голосовать в опросах
Вы не можете прикреплять файлы к сообщениям
Вы можете скачивать файлы