Loading...
Error

Скачать С кем бы побегать / Mishehu Larutz Ito / Someone to Run With (Одед Давидофф) [2006, драма, DVDRip-AVC] [VO] торрент без регистрации

 
Статистика раздачи
Размер:  1,46 GB   |    Скачан:  94 раза
Сидов:  1  [  0 KB/s  ]  
 
Автор Сообщение

Marsianka

[] 


С кем бы побегать / Mishehu Larutz Ito / Someone to Run With

Год выхода: 2006
Жанр: драма
Режиссер: Одед Давидофф / Oded Davidoff
В ролях: Бар Бельфер, Йонатан Бар-Ор, Цахи Град, Данни Штег, Юваль Мендельсон

О фильме: Экранизация одноимённого романа известного израильского прозаика Давида Гроссмана.
По улицам Иерусалима бежит большая собака, а за нею несется шестнадцатилетний Асаф, застенчивый и неловкий подросток, летние каникулы которого до этого дня были испорчены тоскливой работой в мэрии. Но после того как ему поручили отыскать хозяина потерявшейся собаки, жизнь его кардинально изменилась в нее ворвалось настоящее приключение. В поисках своего хозяина Динка приведет его в греческий монастырь, где обитает лишь одна-единственная монахиня, не выходившая на улицу уже пятьдесят лет; в заброшенную арабскую деревню, ставшую последним прибежищем несчастных русских беспризорников; к удивительному озеру в пустыне... По тем же иерусалимским улицам бродит странная девушка, с обритым наголо черепом и неземной красоты голосом. Тамар певица, мечтавшая о подмостках лучших оперных театров мира, но теперь она поет на улицах и площадях, среди праздных прохожих, торговцев шаурмой, наркодилеров, карманников и полицейских. Тамар тоже ищет, и поиски ее смертельно опасны... Встреча Асафа и Тамар предопределена судьбой и собачьим обонянием, но прежде, чем встретиться, они испытают немало приключений и много узнают о себе и странном мире, в котором живут.



Выпущено: Израиль / B&K Film Productions, B&K Productions, JCS Productions
Продолжительность: 01:56:36
Перевод:
Любительский одноголосый

Кодек: x264
Качество: DVDRip-AVC (Исходник DVD9)
Видео: 716x572 @ 1018x572 (16:9), 25 fps, H264 ~ 1599 kbps avg, 0.156 bit/pixel
Аудио: 48 kHz, AC3 Dolby Digital, 2/0 (L,R) ch, ~192 kbps

Общее
Уникальный идентификатор : 170480057549137473007604060260745944395 (0x804143C85352F1E091C3196E2B0D1D4B)
Полное имя: S.kem.pobegat.2006.H264.DVDRip-AVC.Rus_SergV.mkv
Формат : Matroska
Версия формата : Version 2
Размер файла : 1,46 Гбайт
Продолжительность : 1 ч. 56 м.
Общий поток : 1792 Кбит/сек
Дата кодирования : UTC 2013-03-21 01:07:39
Программа кодирования : mkvmerge v5.8.0 ('No Sleep / Pillow') built on Sep 2 2012 15:37:04
Библиотека кодирования : libebml v1.2.3 + libmatroska v1.3.0

Видео
Идентификатор : 1
Формат : AVC
Формат/Информация : Advanced Video Codec
Профиль формата : High@L4.1
Параметр CABAC формата : Да
Параметр ReFrames формата : 16 кадров
Идентификатор кодека : V_MPEG4/ISO/AVC
Продолжительность : 1 ч. 56 м.
Битрейт : 1599 Кбит/сек
Ширина : 716 пикселей
Высота : 572 пикселя
Соотношение сторон : 16:9
Режим частоты кадров : Постоянный
Частота кадров : 25,000 кадров/сек
Цветовое пространство : YUV
Субдискретизация насыщенности : 4:2:0
Битовая глубина : 8 бит
Тип развёртки : Прогрессивная
Бит/(Пиксели*Кадры) : 0.156
Размер потока : 1,27 Гбайт (87%)
Библиотека кодирования : x264 core 129 r2245 bc13772
Настройки программы : cabac=1 / ref=16 / deblock=1:-1:-1 / analyse=0x3:0x133 / me=umh / subme=10 / psy=1 / psy_rd=1.00:0.15 / mixed_ref=1 / me_range=24 / chroma_me=1 / trellis=2 / 8x8dct=1 / cqm=0 / deadzone=21,11 / fast_pskip=1 / chroma_qp_offset=-3 / threads=2 / lookahead_threads=1 / sliced_threads=0 / nr=0 / decimate=1 / interlaced=0 / bluray_compat=0 / constrained_intra=0 / bframes=9 / b_pyramid=2 / b_adapt=2 / b_bias=0 / direct=3 / weightb=1 / open_gop=0 / weightp=2 / keyint=250 / keyint_min=25 / scenecut=40 / intra_refresh=0 / rc_lookahead=60 / rc=2pass / mbtree=1 / bitrate=1599 / ratetol=1.0 / qcomp=0.60 / qpmin=0 / qpmax=51 / qpstep=4 / cplxblur=20.0 / qblur=0.5 / ip_ratio=1.40 / aq=1:1.00
Default : Да
Forced : Нет

Аудио
Идентификатор : 2
Формат : AC-3
Формат/Информация : Audio Coding 3
Расширение режима : CM (complete main)
Параметр Endianness формата : Big
Идентификатор кодека : A_AC3
Продолжительность : 1 ч. 56 м.
Вид битрейта : Постоянный
Битрейт : 192 Кбит/сек
Каналы : 2 канала
Расположение каналов : Front: L R
Частота : 48,0 КГц
Битовая глубина : 16 бит
Метод сжатия : С потерями
Размер потока : 160 Мбайт (11%)
Default : Да
Forced : Нет

x264 [info]: frame I:1451 Avg QP:17.02 size: 49991
x264 [info]: frame P:36729 Avg QP:20.67 size: 17652
x264 [info]: frame B:136729 Avg QP:22.69 size: 4734
Релиз от:



Скачать С.кем.бы.побегать.Mishehu.Larutz.Ito.Someone.to.Run.With.(Одед.Давидофф).[2006.драма.DVDRip-AVC].[VO].torrent без регистрации
Золото ЗОЛОТАЯ РАЗДАЧА! СКАЧАННОЕ НЕ ЗАСЧИТЫВАЕТСЯ! Золото
Дата: Зарегистрирован   [ Тип: внутренний ] Как тут cкачать?
MAGNET ссылка
MAGNET ссылка


Скачать .torrent

15 KB

Статус: проверено DHT
Скачан: торрент - 94 раз, раздача полностью - 0 раз
Размер: 1,46 GB
Оценка:  - (Голосов: 0)
Поблагодарили: 0
Поделиться ссылкой на эту раздачу с друзьями:
В контактеFacebookОдноклассникиTwitterLivejournalМой МирLiveinternet
 

 
Показать сообщения:    


Вы не можете начинать темы
Вы не можете отвечать на сообщения
Вы не можете редактировать свои сообщения
Вы не можете удалять свои сообщения
Вы не можете голосовать в опросах
Вы не можете прикреплять файлы к сообщениям
Вы можете скачивать файлы