Loading...
Error

Скачать С кем бы побегать / Mishehu Larutz Ito / Someone to Run With (Одед Давидофф) [2006, драма, DVDRip] [VO] торрент без регистрации

 
Статистика раздачи
Размер:  1,47 GB   |    Скачан:  107 раз
Сидов:  1  [  0 KB/s  ]  
 
Автор Сообщение

Marsianka

[] 


С кем бы побегать / Mishehu Larutz Ito / Someone to Run With

Год выхода: 2006
Жанр: драма
Режиссер: Одед Давидофф / Oded Davidoff
В ролях: Бар Бельфер, Йонатан Бар-Ор, Цахи Град, Данни Штег, Юваль Мендельсон

О фильме: Экранизация одноимённого романа известного израильского прозаика Давида Гроссмана.
По улицам Иерусалима бежит большая собака, а за нею несется шестнадцатилетний Асаф, застенчивый и неловкий подросток, летние каникулы которого до этого дня были испорчены тоскливой работой в мэрии. Но после того как ему поручили отыскать хозяина потерявшейся собаки, жизнь его кардинально изменилась в нее ворвалось настоящее приключение. В поисках своего хозяина Динка приведет его в греческий монастырь, где обитает лишь одна-единственная монахиня, не выходившая на улицу уже пятьдесят лет; в заброшенную арабскую деревню, ставшую последним прибежищем несчастных русских беспризорников; к удивительному озеру в пустыне... По тем же иерусалимским улицам бродит странная девушка, с обритым наголо черепом и неземной красоты голосом. Тамар певица, мечтавшая о подмостках лучших оперных театров мира, но теперь она поет на улицах и площадях, среди праздных прохожих, торговцев шаурмой, наркодилеров, карманников и полицейских. Тамар тоже ищет, и поиски ее смертельно опасны... Встреча Асафа и Тамар предопределена судьбой и собачьим обонянием, но прежде, чем встретиться, они испытают немало приключений и много узнают о себе и странном мире, в котором живут.



Выпущено: Израиль / B&K Film Productions, B&K Productions, JCS Productions
Продолжительность: 01:56:36
Перевод:
Любительский одноголосый

Кодек: XviD - Совместимо с бытовыми DVD-плеерами
Качество: DVDRip (Исходник DVD9)
Видео: 720x400 (1.80:1), 25 fps, XviD build 65 ~1599 kbps avg, 0.22 bit/pixel
Аудио: 48 kHz, AC3 Dolby Digital, 2/0 (L,R) ch, ~192 kbps

Общее
Полное имя: S.kem.pobegat.2006.XviD.DVDRip.Rus_SergV.avi
Формат : AVI
Формат/Информация : Audio Video Interleave
Размер файла : 1,47 Гбайт
Продолжительность : 1 ч. 56 м.
Общий поток : 1801 Кбит/сек
Название фильма : S.kem.pobegat.2006.XviD.DVDRip.Rus_SergV
Программа кодирования : VirtualDubMod 1.5.10.3 | www.virtualdub-fr.org || (build 2550/release)
Примечание : Рип от SergV

Видео
Идентификатор : 0
Формат : MPEG-4 Visual
Профиль формата : Advanced Simple@L5
Параметр BVOP формата : 2
Параметр QPel формата : Нет
Параметр GMC формата : Без точки перехода
Параметр матрицы формата : Default (MPEG)
Идентификатор кодека : XVID
Идентификатор кодека/Подсказка : XviD
Продолжительность : 1 ч. 56 м.
Битрейт : 1600 Кбит/сек
Ширина : 720 пикселей
Высота : 400 пикселей
Соотношение сторон : 16:9
Частота кадров : 25,000 кадров/сек
Цветовое пространство : YUV
Субдискретизация насыщенности : 4:2:0
Битовая глубина : 8 бит
Тип развёртки : Прогрессивная
Метод сжатия : С потерями
Бит/(Пиксели*Кадры) : 0.222
Размер потока : 1,30 Гбайт (89%)
Библиотека кодирования : XviD 65

Аудио
Идентификатор : 1
Формат : AC-3
Формат/Информация : Audio Coding 3
Расширение режима : CM (complete main)
Параметр Endianness формата : Big
Идентификатор кодека : 2000
Продолжительность : 1 ч. 56 м.
Вид битрейта : Постоянный
Битрейт : 192 Кбит/сек
Каналы : 2 канала
Расположение каналов : Front: L R
Частота : 48,0 КГц
Битовая глубина : 16 бит
Метод сжатия : С потерями
Размер потока : 160 Мбайт (11%)
Выравнивание : Разделение по промежуткам
Продолжительность промежутка : 40 мс. (1,00 видеокадр)
Время предзагрузки промежутка : 500 мс.
Релиз от:



Скачать С.кем.бы.побегать.Mishehu.Larutz.Ito.Someone.to.Run.With.(Одед.Давидофф).[2006.драма.DVDRip].[VO].torrent без регистрации
Золото ЗОЛОТАЯ РАЗДАЧА! СКАЧАННОЕ НЕ ЗАСЧИТЫВАЕТСЯ! Золото
Дата: Зарегистрирован   [ Тип: внутренний ] Как тут cкачать?
MAGNET ссылка
MAGNET ссылка


Скачать .torrent

15 KB

Статус: проверено DHT
Скачан: торрент - 107 раз, раздача полностью - 3 раз
Размер: 1,47 GB
Оценка:  - (Голосов: 0)
Поблагодарили: 0
Поделиться ссылкой на эту раздачу с друзьями:
В контактеFacebookОдноклассникиTwitterLivejournalМой МирLiveinternet
 

 
Показать сообщения:    


Вы не можете начинать темы
Вы не можете отвечать на сообщения
Вы не можете редактировать свои сообщения
Вы не можете удалять свои сообщения
Вы не можете голосовать в опросах
Вы не можете прикреплять файлы к сообщениям
Вы можете скачивать файлы