Loading...
Error

Скачать Добро пожаловать в Лэйквью / Lakeview Terrace (Нил ЛаБут) [2008, триллер, драма, криминал, BDRip-AVC] [MVO]+[Sub] торрент без регистрации

 
Статистика раздачи
Размер:  2,23 GB   |    Скачан:  121 раз
Сидов:  1  [  0 KB/s  ]  
 
Автор Сообщение

Marsianka

[] 

Информация о фильме
Название: Добро пожаловать в Лэйквью
Оригинальное название: Lakeview Terrace
Год выхода: 2008
Жанр: триллер, драма, криминал
Режиссер: Нил ЛаБут
В ролях: Сэмюэл Л. Джексон, Патрик Уилсон, Керри Вашингтон, Рон Гласс, Джастин Чэмберс, Джей Эрнандес, Реджин Нэи, Джейшон Фишер, Роберт Пайн, Кит ЛонекерЛэфферти, Паула Малкомсон, Рода Гриффис, Сандино Мойя, Рэйко Боуман, Дуэйн Бойд, Энтони Рейнольдс


О фильме:
Эйбел Тёрнер крепкий наглый черный коп, прослужил в полиции 28 лет, превратившись из блюстителя закона в беспредельщика, вдовый отец двоих подростков и домашний "тюремный надзиратель". Он живет в пригороде Лос-Анджелеса, Лейквью. По соседству поселяется молодая пара, Крис и Лиза. Он офисный служащий крупной сети супермаркетов и белый ирландец, она дочь богатого отца и черная....



Страна: США, Overbrook Entertainment, Screen Gems
Продолжительность: 01:50:27
Перевод: Профессиональный многоголосый
Субтитры: Английские
Дата релиза: 23.03.2013

Файл
Кодек: H.264
Качество: BDRip (AVC) (Blu-Ray Remux (1080p))
Видео: MPEG-4 AVC, 1999 Кбит/с, 1024x428
Звук: Русский, английский (AC3, 6 ch, 448 Кбит/с)
Общее
Уникальный идентификатор : 245907490547442675106589069908463233051 (0xB9000F59808B7EA89FC9A09B731AA81B)
Полное имя : D:2Dobro.pozhalovat.v.Ljejkvju.2008.x264.BDRip.(AVC).ExKinoRay.mkv
Формат : Matroska
Размер файла : 2,23 Гбайт
Продолжительность : 1 ч. 50 м.
Общий поток : 2895 Кбит/сек
Название фильма : Dobro.pozhalovat.v.Ljejkvju.2008.x264.BDRip.(AVC).ExKinoRay
Дата кодирования : UTC 2013-03-22 21:06:19
Программа кодирования : mkvmerge v4.0.0 ('The Stars were mine') сборка от Jun 6 2010 16:18:42
Библиотека кодирования : libebml v1.0.0 + libmatroska v1.0.0

Видео
Идентификатор : 1
Формат : AVC
Формат/Информация : Advanced Video Codec
Профиль формата : High@L4.1
Параметр CABAC формата : Да
Параметр ReFrames формата : 8 кадров
Идентификатор кодека : V_MPEG4/ISO/AVC
Продолжительность : 1 ч. 50 м.
Битрейт : 1999 Кбит/сек
Ширина : 1024 пикс.
Высота : 428 пикс.
Соотношение сторон : 2,35:1
Частота кадров : 23,976 кадр/сек
Цветовое пространство : YUV
Подвыборка цветности : 4:2:0
Битовая глубина : 8 бит
Тип развёртки : Прогрессивная
Бит/(Пиксели*Кадры) : 0.190
Размер потока : 1,50 Гбайт (67%)
Заголовок : Rip by Enigma-Vladislav71
Библиотека кодирования : x264 core 129 r2245 bc13772
Настройки программы : cabac=1 / ref=8 / deblock=1:-2:-2 / analyse=0x3:0x133 / me=umh / subme=11 / psy=1 / psy_rd=1.00:0.00 / mixed_ref=1 / me_range=48 / chroma_me=1 / trellis=2 / 8x8dct=1 / cqm=0 / deadzone=21,11 / fast_pskip=0 / chroma_qp_offset=-2 / threads=3 / lookahead_threads=1 / sliced_threads=0 / nr=0 / decimate=0 / interlaced=0 / bluray_compat=0 / constrained_intra=0 / bframes=8 / b_pyramid=2 / b_adapt=2 / b_bias=0 / direct=3 / weightb=1 / open_gop=0 / weightp=2 / keyint=240 / keyint_min=23 / scenecut=40 / intra_refresh=0 / rc_lookahead=40 / rc=2pass / mbtree=1 / bitrate=1999 / ratetol=1.0 / qcomp=0.60 / qpmin=10 / qpmax=51 / qpstep=4 / cplxblur=20.0 / qblur=0.5 / ip_ratio=1.40 / aq=2:1.00
Язык : English

Аудио #1
Идентификатор : 2
Формат : AC-3
Формат/Информация : Audio Coding 3
Расширение режима : CM (complete main)
Идентификатор кодека : A_AC3
Продолжительность : 1 ч. 50 м.
Вид битрейта : Постоянный
Битрейт : 448 Кбит/сек
Каналы : 6 каналов
Расположение каналов : Front: L C R, Side: L R, LFE
Частота : 48,0 КГц
Битовая глубина : 16 бит
Метод сжатия : С потерями
Размер потока : 354 Мбайт (15%)
Язык : Russian

Аудио #2
Идентификатор : 3
Формат : AC-3
Формат/Информация : Audio Coding 3
Расширение режима : CM (complete main)
Идентификатор кодека : A_AC3
Продолжительность : 1 ч. 50 м.
Вид битрейта : Постоянный
Битрейт : 448 Кбит/сек
Каналы : 6 каналов
Расположение каналов : Front: L C R, Side: L R, LFE
Частота : 48,0 КГц
Битовая глубина : 16 бит
Метод сжатия : С потерями
Размер потока : 354 Мбайт (15%)
Язык : English

Текст
Идентификатор : 4
Формат : UTF-8
Идентификатор кодека : S_TEXT/UTF8
Идентификатор кодека/Информация : UTF-8 Plain Text
Язык : English

Меню
00:00:00.000 : en:Chapter 01
00:07:00.337 : en:Chapter 02
00:13:58.128 : en:Chapter 03
00:20:38.779 : en:Chapter 04
00:26:40.224 : en:Chapter 05
00:35:51.065 : en:Chapter 06
00:41:37.745 : en:Chapter 07
00:46:28.369 : en:Chapter 08
00:52:35.944 : en:Chapter 09
00:58:02.312 : en:Chapter 10
01:05:58.454 : en:Chapter 11
01:12:49.782 : en:Chapter 12
01:18:36.629 : en:Chapter 13
01:26:20.966 : en:Chapter 14
01:33:56.171 : en:Chapter 15
01:41:47.977 : en:Chapter 16
Семпл Релиз от:

Авторы релиза:



Скачать Добро.пожаловать.в.Лэйквью.Lakeview.Terrace.(Нил.ЛаБут).[2008.триллер.драма.криминал.BDRip-AVC].[MVO]+[Sub].torrent без регистрации
Золото ЗОЛОТАЯ РАЗДАЧА! СКАЧАННОЕ НЕ ЗАСЧИТЫВАЕТСЯ! Золото
Дата: Зарегистрирован   [ Тип: внутренний ] Как тут cкачать?
MAGNET ссылка
MAGNET ссылка


Скачать .torrent

12 KB

Статус: проверено DHT
Скачан: торрент - 121 раз, раздача полностью - 59 раз
Размер: 2,23 GB
Оценка:  5 (Голосов: 1)
Поблагодарили: 4
Поделиться ссылкой на эту раздачу с друзьями:
В контактеFacebookОдноклассникиTwitterLivejournalМой МирLiveinternet
 

 
Показать сообщения:    


Вы не можете начинать темы
Вы не можете отвечать на сообщения
Вы не можете редактировать свои сообщения
Вы не можете удалять свои сообщения
Вы не можете голосовать в опросах
Вы не можете прикреплять файлы к сообщениям
Вы можете скачивать файлы