Loading...
Error

Скачать Тринадцатый / XIII: The Series (сезон 02) (Дуан Кларк, Ален Тасма) [2011, боевик, триллер, криминал, детектив, HDRip] [720p] [DVO (AXN Sci-Fi) ] торрент без регистрации

 
Статистика раздачи
Размер:  29,19 GB   |    Скачан:  159 раз
Сидов:  1  [  0 KB/s  ]  
 
Автор Сообщение

МихаНЕзатор

[] 

Информация о фильме
Название: Тринадцатый
Оригинальное название: XIII: The Series
Год выхода: 2013
Производство: Prodigy Pictures, XIII Series (Канада), Canal+ (Франция)
Жанр: боевик, триллер, криминал, детектив
Режиссер: Дуан Кларк, Ален Тасма
В ролях: Стюарт Таунсенд, Аиша Тайлер, Вирджиния Ледуайен, Грег Брайк, Стивен МакХэтти, Паулино Нюнс, Катерина Мурино, Тед Атертон, Дэвид Бронфман, Хьюберт Бурдер

Описание: Первая в США женщина-президент убита метким снайперским выстрелом во время выступления в День ветеранов. Убийца не найден. Вскоре после этого в лесу находят таинственного парашютиста. Он ранен и не помнит абсолютно ничего из своего прошлого. На его груди загадочная татуировка «XIII». Теперь молодому человеку предстоит понять кто он такой и попытаться раскрыть правительственный заговор...



Продолжительность: 2 х ~ 00:46:00
Перевод: Профессиональный двухголосый закадровый (AXN Sci-Fi)

Файл
Качество: BDRip 720p
Формат: MKV
Видео кодек: H.264
Аудио кодек: АС3,DTS
Видео: 1280x720 (1.80:1), 25.000 fps, ~ 5200 кбит/с, bit/pixel 0.226
Аудио Rus: 48 kHz, AC3 Dolby Digital, 2/0 (L,R) ch, ~192.00 kbps avg | (AXN Sci-Fi Россия)
Аудио Eng: 48 kHz, DTS, 6 (Front: L C R, Side: L R, LFE) ch, ~1510.00 kbps avg
Русские субтитры: нет

30.04.2013 г. торент обновлён, добавлена 12-13 серия, сезон полностью!

D:\Filmi\XIII (Ñåçîí 2) 720p\XIII.s02e01.rus.eng.720p.CasStudio.TV.mkv
General
Unique ID : 212158487492289799177848984097831580042 (0x9F9C3D07E55422EB982E30AEE5B8F18A)
Complete name : D:\Filmi\XIII (Ñåçîí 2) 720p\XIII.s02e01.rus.eng.720p.CasStudio.TV.mkv
Format : Matroska
Format version : Version 4 / Version 2
File size : 2.25 GiB
Duration : 46mn 29s
Overall bit rate : 6 918 Kbps
Encoded date : UTC 2013-03-15 18:22:48
Writing application : mkvmerge v6.1.0 ('Old Devil') built on Mar 2 2013 14:32:37
Writing library : libebml v1.3.0 + libmatroska v1.4.0
Video #1
ID : 1
Format : AVC
Format/Info : Advanced Video Codec
Format profile : High@L4.1
Format settings, CABAC : Yes
Format settings, ReFrames : 5 frames
Codec ID : V_MPEG4/ISO/AVC
Duration : 46mn 29s
Bit rate : 5 215 Kbps
Width : 1 280 pixels
Height : 720 pixels
Display aspect ratio : 16:9
Frame rate mode : Constant
Frame rate : 25.000 fps
Color space : YUV
Chroma subsampling : 4:2:0
Bit depth : 8 bits
Scan type : Progressive
Bits/(Pixel*Frame) : 0.226
Stream size : 1.65 GiB (73%)
Writing library : x264 core 129 r2230 1cffe9f
Encoding settings : cabac=1 / ref=5 / deblock=1:0:0 / analyse=0x3:0x113 / me=umh / subme=7 / psy=1 / psy_rd=1.00:0.15 / mixed_ref=1 / me_range=16 / chroma_me=1 / trellis=1 / 8x8dct=1 / cqm=0 / deadzone=21,11 / fast_pskip=0 / chroma_qp_offset=-3 / threads=18 / lookahead_threads=3 / sliced_threads=0 / nr=0 / decimate=1 / interlaced=0 / bluray_compat=0 / constrained_intra=0 / bframes=3 / b_pyramid=2 / b_adapt=1 / b_bias=0 / direct=1 / weightb=1 / open_gop=0 / weightp=2 / keyint=250 / keyint_min=25 / scenecut=40 / intra_refresh=0 / rc_lookahead=40 / rc=2pass / mbtree=1 / bitrate=5215 / ratetol=1.0 / qcomp=0.60 / qpmin=0 / qpmax=69 / qpstep=4 / cplxblur=20.0 / qblur=0.5 / ip_ratio=1.40 / aq=1:1.00
Language : French
Default : Yes
Forced : Yes
Audio #2
ID : 2
Format : AC-3
Format/Info : Audio Coding 3
Mode extension : CM (complete main)
Format settings, Endianness : Big
Codec ID : A_AC3
Duration : 46mn 29s
Bit rate mode : Constant
Bit rate : 192 Kbps
Channel(s) : 2 channels
Channel positions : Front: L R
Sampling rate : 48.0 KHz
Bit depth : 16 bits
Compression mode : Lossy
Stream size : 63.8 MiB (3%)
Title : AXN Sci-Fi
Language : Russian
Default : Yes
Forced : No
Audio #3
ID : 3
Format : DTS
Format/Info : Digital Theater Systems
Mode : 16
Format settings, Endianness : Big
Codec ID : A_DTS
Duration : 46mn 29s
Bit rate mode : Constant
Bit rate : 1 509 Kbps
Channel(s) : 6 channels
Channel positions : Front: L C R, Side: L R, LFE
Sampling rate : 48.0 KHz
Bit depth : 24 bits
Compression mode : Lossy
Stream size : 502 MiB (22%)
Title : îðèãèíàë
Language : English
Default : No
Forced : No



Скачать Тринадцатый.XIII.The.Series.(сезон.02).(Дуан.Кларк.Ален.Тасма).[2011.боевик.триллер.криминал.детектив.HDRip].[720p].[DVO.(AXN.Sci-Fi).].torrent без регистрации
Золото ЗОЛОТАЯ РАЗДАЧА! СКАЧАННОЕ НЕ ЗАСЧИТЫВАЕТСЯ! Золото
Дата: Зарегистрирован   [ Тип: внутренний ] Как тут cкачать?
MAGNET ссылка
MAGNET ссылка


Скачать .torrent

147 KB

Статус: проверено DHT
Скачан: торрент - 159 раз, раздача полностью - 12 раз
Размер: 29,19 GB
Оценка:  5 (Голосов: 2)
Поблагодарили: 8
Поделиться ссылкой на эту раздачу с друзьями:
В контактеFacebookОдноклассникиTwitterLivejournalМой МирLiveinternet
 

 

МихаНЕзатор

[] 

Раздача обновлена
 
Показать сообщения:    


Вы не можете начинать темы
Вы не можете отвечать на сообщения
Вы не можете редактировать свои сообщения
Вы не можете удалять свои сообщения
Вы не можете голосовать в опросах
Вы не можете прикреплять файлы к сообщениям
Вы можете скачивать файлы