Loading...
Error

Скачать Человек в синем / The Boy in Blue (Чарльз Джэррот) [1986, драма, биография, спорт, BDRip] [AVO]+[Sub] торрент без регистрации

 
Статистика раздачи
Размер:  2,19 GB   |    Скачан:  101 раз
Сидов:  1  [  0 KB/s  ]  
 
Автор Сообщение

Marsianka

[] 


Страна: Канада
Год выпуска: 1986
Продолжительность: 01:37:18
Жанр: драма, биография, спорт

Перевод: Авторский одноголосый закадровый (Алексеев)
Субтитры: русские, английские
Оригинальная аудидорожка: нет

Режиссер: Чарльз Джэррот / Charles Jarrott

В ролях: Николас Кейдж, Синтия Дэйл, Кристофер Пламмер, Дэвид Нотон, Шон Салливан, Мелоди Андерсон, Джеймс Б. Дуглас, Уолтер Мэсси, Остин Уиллис, Филип Крэйг

Описание: Фильм повествует о жизни канадского гребца Неда Ханлана, чья карьера стремительно началась в 1880-х годх, и резко оборвалась из-за полученной травмы ног В этой драме, происходящей в конце XIX века и основанной на реальной истории, жизни Нэда Хэнлана (Николас Кейдж), молодого преступника, который превращается в гребца мирового класса. Увидев в Хэнлане возможность сделать легкие деньги, Билл (Девид Хотон), любитель азартных игр, решает обучить Хэнлана и содействовать ему в мировых достижениях. Со временем у Хэнлана растёт талант и слава, достигнув вершины чемпионата мира, выиграв награды на трёх континентах, он стал первым гребцом, который использовал "скользящее сидение". Но всё усложняется, когда Хэнлан становится жертвой недобросовестного предпринимателя (Кристофер Пламмер), который показал Хэнлану, какую цену иногда приходится платить за известность.



Исходник: Blu-ray 1080р
Качество: BDRip
Формат: AVI

Видео: 720х384 (1,875:1), 23,976 fps, XviD ~ 2312 kbps avg, 0.349 bit/pixel
Аудио 1: 48 kHz, Dolby AC3, 6 ch, 448.00 kbps Русский
Аудио 2: 48 kHz, Dolby AC3, 6 ch, 448.00 kbps Английский
Формат субтитров: SoftSub (srt)

Раздача от:

Общее
Полное имя : Chelovek.v.sinem.1986.A.BDRip.2.18_[Youtracker]_by_AVP_Studio.avi
Формат : AVI
Формат/Информация : Audio Video Interleave
Профиль формата : OpenDML
Размер файла : 2,19 Гбайт
Продолжительность : 1 ч. 37 м.
Общий поток : 3226 Кбит/сек
Программа кодирования : VirtualDubModRus 1.5.10.2 (build 2542/release)
Библиотека кодирования : VirtualDubMod build 2542/release

Видео
Идентификатор : 0
Формат : MPEG-4 Visual
Профиль формата : Advanced Simple@L5
Параметр BVOP формата : 1
Параметр QPel формата : Нет
Параметр GMC формата : Без точки перехода
Параметр матрицы формата : Выборочная
Идентификатор кодека : XVID
Идентификатор кодека/Подсказка : XviD
Продолжительность : 1 ч. 37 м.
Битрейт : 2312 Кбит/сек
Ширина : 720 пикселей
Высота : 384 пикселя
Соотношение сторон : 1,875
Частота кадров : 23,976 кадра/сек
Цветовое пространство : YUV
Субдискретизация насыщенности : 4:2:0
Битовая глубина : 8 бит
Тип развёртки : Прогрессивная
Метод сжатия : С потерями
Бит/(Пиксели*Кадры) : 0.349
Размер потока : 1,57 Гбайт (72%)
Библиотека кодирования : XviD 65

Аудио #1
Идентификатор : 1
Формат : AC-3
Формат/Информация : Audio Coding 3
Расширение режима : CM (complete main)
Идентификатор кодека : 2000
Продолжительность : 1 ч. 37 м.
Вид битрейта : Постоянный
Битрейт : 448 Кбит/сек
Каналы : 6 каналов
Расположение каналов : Front: L C R, Side: L R, LFE
Частота : 48,0 КГц
Битовая глубина : 16 бит
Метод сжатия : С потерями
Размер потока : 312 Мбайт (14%)
Выравнивание : Разделение по промежуткам
Продолжительность промежутка : 42 мс. (1,00 видеокадр)
Время предзагрузки промежутка : 500 мс.

Аудио #2
Идентификатор : 2
Формат : AC-3
Формат/Информация : Audio Coding 3
Расширение режима : CM (complete main)
Идентификатор кодека : 2000
Продолжительность : 1 ч. 37 м.
Вид битрейта : Постоянный
Битрейт : 448 Кбит/сек
Каналы : 6 каналов
Расположение каналов : Front: L C R, Side: L R, LFE
Частота : 48,0 КГц
Битовая глубина : 16 бит
Метод сжатия : С потерями
Размер потока : 312 Мбайт (14%)
Выравнивание : Разделение по промежуткам
Продолжительность промежутка : 42 мс. (1,00 видеокадр)
Время предзагрузки промежутка : 500 мс



Скачать Человек.в.синем.The.Boy.in.Blue.(Чарльз.Джэррот).[1986.драма.биография.спорт.BDRip].[AVO]+[Sub].torrent без регистрации
Золото ЗОЛОТАЯ РАЗДАЧА! СКАЧАННОЕ НЕ ЗАСЧИТЫВАЕТСЯ! Золото
Дата: Зарегистрирован   [ Тип: внутренний ] Как тут cкачать?
MAGNET ссылка
MAGNET ссылка


Скачать .torrent

12 KB

Статус: проверено DHT
Скачан: торрент - 101 раз, раздача полностью - 2 раз
Размер: 2,19 GB
Оценка:  - (Голосов: 0)
Поблагодарили: 1
Поделиться ссылкой на эту раздачу с друзьями:
В контактеFacebookОдноклассникиTwitterLivejournalМой МирLiveinternet
 

 
Показать сообщения:    


Вы не можете начинать темы
Вы не можете отвечать на сообщения
Вы не можете редактировать свои сообщения
Вы не можете удалять свои сообщения
Вы не можете голосовать в опросах
Вы не можете прикреплять файлы к сообщениям
Вы можете скачивать файлы