Loading...
Error

Скачать Лабиринт / Labyrinth (сезон 01) (Кристофер Смит) [2012, фэнтези, драма, приключения, HDRip-AVC] [MVO]+[Eng] [Лицензия] торрент без регистрации

 
Статистика раздачи
Размер:  4,38 GB   |    Скачан:  121 раз
Сидов:  1  [  0 KB/s  ]  
 
Автор Сообщение

МихаНЕзатор

[] 

Год выпуска: 2012
Выпущено: Германия, Великобритания, ЮАР / Film Afrika Worldwide CC, Scott Free Productions, Tandem Communications

Жанр: фэнтези, драма, приключения
Продолжительность: 01:31:46 + 01:35:30

Перевод: Профессиональный (многоголосый, закадровый) "Lizard Cinema Trade"
Оригинальная аудиодорожка: английский
Субтитры: русский

Режиссер: Кристофер Смит / Maria Estrada

В ролях: Джон Хёрт, Том Фелтон, Джессика Браун-Финдли, Тони Карран, Ванесса Кирби, Джон Линч, Себастьян Стэн, Джанет Сузман, Ст. Джон Александр, Орели Баржем...

Описание: Те люди, которые оказываются в этом лабиринте, могут больше никогда не выбраться из него, ведь он хранит в себе множество тайн и загадок, разгадать которые не под силу даже самым осведомленным и грамотным специалистам. Сериал представляет собой увлекательное приключение, объединяющее две сюжетные линии. В современной археолог Элис Таннер занята раскопками на юге Франции, пытаясь в подземных лабиринтах Каркасона раскрыть тайну исчезновения религиозного движения катаров, которые, согласно легенде, являлись хранителями Святого Грааля. В Средневековой молодая девушка из XIII века пытается понять символы и диаграммы трех вверенных ей священных книг и сохранить свою жизнь.

Качество видео: HDRip-AVC [BDRip 1080p]
Формат видео: MKV

Видео: 1024x572 (16:9), H264 2446 Кбит/сек 25,000 fps / Бит/(Пиксели*Кадры): 0.167
Аудио 1: Dolby Digital Audio Russian 448 kbps 5.1 / 48 kHz
Аудио 2: Dolby Digital Audio English 448 kbps 5.1 / 48 kHz
Формат субтитров: SoftSub (srt)


General
General
Complete name : Labirint.s01.2012.P.HDRip-AVC_[Youtracker]_by_avproh1.mkv
Format : Matroska
Format version : Version 4 / Version 2
File size : 2.14 GiB
Duration : 1h 31mn
Overall bit rate : 3 345 Kbps
Encoded date : UTC 2013-03-23 15:34:20
Writing application : mkvmerge v6.1.0 ('Old Devil') built on Mar 2 2013 14:32:37
Writing library : libebml v1.3.0 + libmatroska v1.4.0

Video
ID : 1
Format : AVC
Format/Info : Advanced Video Codec
Format profile : High@L4.1
Format settings, CABAC : Yes
Format settings, ReFrames : 11 frames
Codec ID : V_MPEG4/ISO/AVC
Duration : 1h 31mn
Bit rate : 2 446 Kbps
Width : 1 024 pixels
Height : 572 pixels
Display aspect ratio : 16:9
Frame rate mode : Constant
Frame rate : 25.000 fps
Color space : YUV
Chroma subsampling : 4:2:0
Bit depth : 8 bits
Scan type : Progressive
Bits/(Pixel*Frame) : 0.167
Stream size : 1.53 GiB (71%)
Writing library : x264 core 119 r2106 07efeb4
Encoding settings : cabac=1 / ref=11 / deblock=1:-2:-1 / analyse=0x3:0x113 / me=umh / subme=9 / psy=1 / psy_rd=1.00:0.10 / mixed_ref=1 / me_range=32 / chroma_me=1 / trellis=2 / 8x8dct=1 / cqm=0 / deadzone=21,11 / fast_pskip=1 / chroma_qp_offset=-3 / threads=9 / sliced_threads=0 / nr=0 / decimate=1 / interlaced=0 / bluray_compat=0 / constrained_intra=0 / bframes=11 / b_pyramid=2 / b_adapt=2 / b_bias=0 / direct=3 / weightb=1 / open_gop=0 / weightp=2 / keyint=250 / keyint_min=25 / scenecut=40 / intra_refresh=0 / rc_lookahead=80 / rc=2pass / mbtree=1 / bitrate=2446 / ratetol=1.0 / qcomp=0.60 / qpmin=0 / qpmax=69 / qpstep=4 / cplxblur=20.0 / qblur=0.5 / ip_ratio=1.40 / aq=2:0.90
Language : English
Default : Yes
Forced : No

Audio #1
ID : 2
Format : AC-3
Format/Info : Audio Coding 3
Mode extension : CM (complete main)
Format settings, Endianness : Big
Codec ID : A_AC3
Duration : 1h 31mn
Bit rate mode : Constant
Bit rate : 448 Kbps
Channel(s) : 6 channels
Channel positions : Front: L C R, Side: L R, LFE
Sampling rate : 48.0 KHz
Bit depth : 16 bits
Compression mode : Lossy
Stream size : 294 MiB (13%)
Title : MVO LIZARD
Language : Russian
Default : Yes
Forced : No

Audio #2
ID : 3
Format : AC-3
Format/Info : Audio Coding 3
Mode extension : CM (complete main)
Format settings, Endianness : Big
Codec ID : A_AC3
Duration : 1h 31mn
Bit rate mode : Constant
Bit rate : 448 Kbps
Channel(s) : 6 channels
Channel positions : Front: L C R, Side: L R, LFE
Sampling rate : 48.0 KHz
Bit depth : 16 bits
Compression mode : Lossy
Stream size : 294 MiB (13%)
Title : Original
Language : English
Default : No
Forced : No

Text
ID : 4
Format : UTF-8
Codec ID : S_TEXT/UTF8
Codec ID/Info : UTF-8 Plain Text
Language : Russian
Default : No
Forced : No

Menu
00:00:00.000 : en:00:00:00.000
00:08:24.600 : en:00:08:24.600
00:15:47.120 : en:00:15:47.120
00:21:38.120 : en:00:21:38.120
00:29:59.040 : en:00:29:59.040
00:36:50.640 : en:00:36:50.640
00:45:35.720 : en:00:45:35.720
00:53:23.920 : en:00:53:23.920
01:00:20.280 : en:01:00:20.280
01:07:24.720 : en:01:07:24.720
01:15:14.240 : en:01:15:14.240
01:22:33.000 : en:01:22:33.000



Скачать Лабиринт.Labyrinth.(сезон.01).(Кристофер.Смит).[2012.фэнтези.драма.приключения.HDRip-AVC].[MVO]+[Eng].[Лицензия].torrent без регистрации
Золото ЗОЛОТАЯ РАЗДАЧА! СКАЧАННОЕ НЕ ЗАСЧИТЫВАЕТСЯ! Золото
Дата: Зарегистрирован   [ Тип: внутренний ] Как тут cкачать?
MAGNET ссылка
MAGNET ссылка


Скачать .torrent

12 KB

Статус: проверено DHT
Скачан: торрент - 121 раз, раздача полностью - 69 раз
Размер: 4,38 GB
Оценка:  - (Голосов: 0)
Поблагодарили: 1
Поделиться ссылкой на эту раздачу с друзьями:
В контактеFacebookОдноклассникиTwitterLivejournalМой МирLiveinternet
 

 
Показать сообщения:    


Вы не можете начинать темы
Вы не можете отвечать на сообщения
Вы не можете редактировать свои сообщения
Вы не можете удалять свои сообщения
Вы не можете голосовать в опросах
Вы не можете прикреплять файлы к сообщениям
Вы можете скачивать файлы