Loading...
Error

Скачать Лабиринт / Labyrinth (сезон 01) (Кристофер Смит) [2012, фэнтези, драма, приключения, HDRip] [MVO] [Лицензия] торрент без регистрации

 
Статистика раздачи
Размер:  1,46 GB   |    Скачан:  133 раза
Сидов:  1  [  0 KB/s  ]  
 
Автор Сообщение

МихаНЕзатор

[] 

Год выпуска: 2012
Выпущено: Германия, Великобритания, ЮАР / Film Afrika Worldwide CC, Scott Free Productions, Tandem Communications

Жанр: фэнтези, драма, приключения
Продолжительность: 01:31:46 + 01:35:30

Перевод: Профессиональный (многоголосый, закадровый) "Lizard Cinema Trade"
Оригинальная аудиодорожка: нет
Субтитры: нет

Режиссер: Кристофер Смит / Maria Estrada

В ролях: Джон Хёрт, Том Фелтон, Джессика Браун-Финдли, Тони Карран, Ванесса Кирби, Джон Линч, Себастьян Стэн, Джанет Сузман, Ст. Джон Александр, Орели Баржем...

Описание: Те люди, которые оказываются в этом лабиринте, могут больше никогда не выбраться из него, ведь он хранит в себе множество тайн и загадок, разгадать которые не под силу даже самым осведомленным и грамотным специалистам. Сериал представляет собой увлекательное приключение, объединяющее две сюжетные линии. В современной археолог Элис Таннер занята раскопками на юге Франции, пытаясь в подземных лабиринтах Каркасона раскрыть тайну исчезновения религиозного движения катаров, которые, согласно легенде, являлись хранителями Святого Грааля. В Средневековой молодая девушка из XIII века пытается понять символы и диаграммы трех вверенных ей священных книг и сохранить свою жизнь.

Качество видео: HDRip [BDRip 1080p]
Формат видео: AVI

Видео: 656x368 (16:9), XviD 975 Кбит/сек 25,000 fps / Бит/(Пиксели*Кадры): 0.162
Аудио: MP3 Audio Russian 128 kbps 2.0 / 48 kHz


General
Complete name : Labirint.s01.2012.P.HDRip.745MB_[Youtracker]_by_avproh1.avi
Format : AVI
Format/Info : Audio Video Interleave
File size : 730 MiB
Duration : 1h 31mn
Overall bit rate : 1 112 Kbps
Writing application : VirtualDubModRus 1.5.10.2 (build 2542/release)
Writing library : VirtualDubMod build 2542/release

Video
ID : 0
Format : MPEG-4 Visual
Format profile : Advanced Simple@L5
Format settings, BVOP : 1
Format settings, QPel : No
Format settings, GMC : No warppoints
Format settings, Matrix : Custom
Codec ID : XVID
Codec ID/Hint : XviD
Duration : 1h 31mn
Bit rate : 975 Kbps
Width : 656 pixels
Height : 368 pixels
Display aspect ratio : 16:9
Frame rate : 25.000 fps
Color space : YUV
Chroma subsampling : 4:2:0
Bit depth : 8 bits
Scan type : Progressive
Compression mode : Lossy
Bits/(Pixel*Frame) : 0.162
Stream size : 640 MiB (88%)
Writing library : XviD 65

Audio
ID : 1
Format : MPEG Audio
Format version : Version 1
Format profile : Layer 3
Mode : Joint stereo
Mode extension : MS Stereo
Codec ID : 55
Codec ID/Hint : MP3
Duration : 1h 31mn
Bit rate mode : Constant
Bit rate : 128 Kbps
Channel(s) : 2 channels
Sampling rate : 48.0 KHz
Compression mode : Lossy
Stream size : 84.0 MiB (12%)
Alignment : Aligned on interleaves
Interleave, duration : 40 ms (1.00 video frame)
Interleave, preload duration : 504 ms



Скачать Лабиринт.Labyrinth.(сезон.01).(Кристофер.Смит).[2012.фэнтези.драма.приключения.HDRip].[MVO].[Лицензия].torrent без регистрации
Золото ЗОЛОТАЯ РАЗДАЧА! СКАЧАННОЕ НЕ ЗАСЧИТЫВАЕТСЯ! Золото
Дата: Зарегистрирован   [ Тип: внутренний ] Как тут cкачать?
MAGNET ссылка
MAGNET ссылка


Скачать .torrent

15 KB

Статус: проверено DHT
Скачан: торрент - 133 раз, раздача полностью - 8 раз
Размер: 1,46 GB
Оценка:  5 (Голосов: 1)
Поблагодарили: 2
Поделиться ссылкой на эту раздачу с друзьями:
В контактеFacebookОдноклассникиTwitterLivejournalМой МирLiveinternet
 

 
Показать сообщения:    


Вы не можете начинать темы
Вы не можете отвечать на сообщения
Вы не можете редактировать свои сообщения
Вы не можете удалять свои сообщения
Вы не можете голосовать в опросах
Вы не можете прикреплять файлы к сообщениям
Вы можете скачивать файлы