Loading...
Error

Скачать Лабиринт / Labyrinth (сезон 01) (Кристофер Смит) [2012, фэнтези, драма, приключения, HDRip] [MVO] [Лицензия] торрент без регистрации

 
Статистика раздачи
Размер:  2,91 GB   |    Скачан:  152 раза
Сидов:  1  [  0 KB/s  ]  
 
Автор Сообщение

МихаНЕзатор

[] 

Год выпуска: 2012
Выпущено: Германия, Великобритания, ЮАР / Film Afrika Worldwide CC, Scott Free Productions, Tandem Communications

Жанр: фэнтези, драма, приключения
Продолжительность: 01:31:46 + 01:35:30

Перевод: Профессиональный (многоголосый, закадровый) "Lizard Cinema Trade"
Оригинальная аудиодорожка: нет
Субтитры: нет

Режиссер: Кристофер Смит / Maria Estrada

В ролях: Джон Хёрт, Том Фелтон, Джессика Браун-Финдли, Тони Карран, Ванесса Кирби, Джон Линч, Себастьян Стэн, Джанет Сузман, Ст. Джон Александр, Орели Баржем...

Описание: Те люди, которые оказываются в этом лабиринте, могут больше никогда не выбраться из него, ведь он хранит в себе множество тайн и загадок, разгадать которые не под силу даже самым осведомленным и грамотным специалистам. Сериал представляет собой увлекательное приключение, объединяющее две сюжетные линии. В современной археолог Элис Таннер занята раскопками на юге Франции, пытаясь в подземных лабиринтах Каркасона раскрыть тайну исчезновения религиозного движения катаров, которые, согласно легенде, являлись хранителями Святого Грааля. В Средневековой молодая девушка из XIII века пытается понять символы и диаграммы трех вверенных ей священных книг и сохранить свою жизнь.

Качество видео: HDRip [BDRip 1080p]
Формат видео: AVI

Видео: 720x400 (16:9), XviD 1765 Кбит/сек 25,000 fps / Бит/(Пиксели*Кадры): 0.235
Аудио: Dolby Digital Audio Russian 448 kbps 5.1 / 48 kHz


General
Complete name : Labirint.s01.2012.P.HDRip_[Youtracker]_by_avproh1.avi
Format : AVI
Format/Info : Audio Video Interleave
File size : 1.42 GiB
Duration : 1h 31mn
Overall bit rate : 2 222 Kbps
Writing application : VirtualDubModRus 1.5.10.2 (build 2542/release)
Writing library : VirtualDubMod build 2542/release

Video
ID : 0
Format : MPEG-4 Visual
Format profile : Advanced Simple@L5
Format settings, BVOP : 1
Format settings, QPel : No
Format settings, GMC : No warppoints
Format settings, Matrix : Custom
Codec ID : XVID
Codec ID/Hint : XviD
Duration : 1h 31mn
Bit rate : 1 765 Kbps
Width : 720 pixels
Height : 400 pixels
Display aspect ratio : 16:9
Frame rate : 25.000 fps
Color space : YUV
Chroma subsampling : 4:2:0
Bit depth : 8 bits
Scan type : Progressive
Compression mode : Lossy
Bits/(Pixel*Frame) : 0.245
Stream size : 1.13 GiB (79%)
Writing library : XviD 65

Audio
ID : 1
Format : AC-3
Format/Info : Audio Coding 3
Mode extension : CM (complete main)
Format settings, Endianness : Big
Codec ID : 2000
Duration : 1h 31mn
Bit rate mode : Constant
Bit rate : 448 Kbps
Channel(s) : 6 channels
Channel positions : Front: L C R, Side: L R, LFE
Sampling rate : 48.0 KHz
Bit depth : 16 bits
Compression mode : Lossy
Stream size : 294 MiB (20%)
Alignment : Split accross interleaves
Interleave, duration : 40 ms (1.00 video frame)
Interleave, preload duration : 500 ms



Скачать Лабиринт.Labyrinth.(сезон.01).(Кристофер.Смит).[2012.фэнтези.драма.приключения.HDRip].[MVO].[Лицензия].torrent без регистрации
Золото ЗОЛОТАЯ РАЗДАЧА! СКАЧАННОЕ НЕ ЗАСЧИТЫВАЕТСЯ! Золото
Дата: Зарегистрирован   [ Тип: внутренний ] Как тут cкачать?
MAGNET ссылка
MAGNET ссылка


Скачать .torrent

15 KB

Статус: проверено DHT
Скачан: торрент - 152 раз, раздача полностью - 70 раз
Размер: 2,91 GB
Оценка:  - (Голосов: 0)
Поблагодарили: 2
Поделиться ссылкой на эту раздачу с друзьями:
В контактеFacebookОдноклассникиTwitterLivejournalМой МирLiveinternet
 

 
Показать сообщения:    


Вы не можете начинать темы
Вы не можете отвечать на сообщения
Вы не можете редактировать свои сообщения
Вы не можете удалять свои сообщения
Вы не можете голосовать в опросах
Вы не можете прикреплять файлы к сообщениям
Вы можете скачивать файлы