Loading...
Error

Скачать Хандерби / Hunderby (сезон 01) (Тони Дау) [2012, комедия, HDTVRip] [720p] [MVO (Baibako)] торрент без регистрации

 
Статистика раздачи
Размер:  5,79 GB   |    Скачан:  121 раз
Сидов:  1  [  0 KB/s  ]  
 
Автор Сообщение

МихаНЕзатор

[] 

Название: Хандерби
Оригинальное название: Hunderby
Год выпуска: 2012
Жанр: комедия
Режиссер: Тони Дау
В ролях: Юлия Дэвис, Александра Роач, Алекс МакКвин, Руфус Джонс, Юлия Барратт, Ребека Стейтон

Описание: 1831 год. У небольшой английской деревушки Хандерби терпит кораблекрушение корабль. Хелен, выжившую в кораблекрушении, выбрасывает на берег, где она становится объектом внимания местного пастыря Эдмунда. Эдмунд, полагая, что его невеста невинна, делает Хелен предложение, а Хелен принимает его, видя в Эдмунде своего спасителя. Они женятся, не подозревая, что у обоих супругов есть «секреты»



Страна: Великобритания
Продолжительность: 08 x ~ 00:25:00
Перевод: Профессиональный (многоголосый, закадровый) - Baibako
Субтитры: нет

ВНИМАНИЕ! В сериале присутствуют шокирующие сцены, глумление над костюмированными драмами и историко-приключенческими кинолентами

Перевод: Янина Галицкая
Озвучка: Елена Григорьева, Наталья Салдаева, Руслан Иванов и Алексей Кузнецов
Монтаж: Павел Дежин
Обложка: Татьяна Saavick

Качество: HDTVRip 720p
Формат: MKV
Видео: MPEG-4 AVC, ~ 2350 Кбит/с, 1280x720
Аудио rus: AC3, 6 ch, 384 Кбит/с
Аудио eng: AC3, 6 ch, 384 Кбит/с

Релиз от:
Complete name : E:торрент!!!Hunderby.s01.HDTV720p.Rus.Eng.BaibaKo.tvHunderby.s01e01-02.HDTV720p.Rus.Eng.BaibaKo.tv.mkv
Format : Matroska
Format version : Version 4 / Version 2
File size : 1.01 GiB
Duration : 45mn 7s
Overall bit rate : 3 189 Kbps
Movie name : BaibaKo.tv presents - Хандерби 1x01-02
Encoded date : UTC 2010-02-22 21:41:31
Writing application : mkvmerge v5.9.0 ('On The Loose') built on Dec 9 2012 15:37:01
Writing library : libebml v1.3.0 + libmatroska v1.4.0

Video
ID : 1
Format : AVC
Format/Info : Advanced Video Codec
Format profile : High@L4.1
Format settings, CABAC : Yes
Format settings, ReFrames : 5 frames
Codec ID : V_MPEG4/ISO/AVC
Duration : 45mn 7s
Bit rate : 2 358 Kbps
Width : 1 280 pixels
Height : 720 pixels
Display aspect ratio : 16:9
Frame rate : 25.000 fps
Color space : YUV
Chroma subsampling : 4:2:0
Bit depth : 8 bits
Scan type : Progressive
Bits/(Pixel*Frame) : 0.102
Stream size : 761 MiB (74%)
Writing library : x264 core 125 r2208 d9d2288
Encoding settings : cabac=1 / ref=5 / deblock=1:0:0 / analyse=0x3:0x113 / me=umh / subme=8 / psy=1 / psy_rd=1.00:0.00 / mixed_ref=1 / me_range=16 / chroma_me=1 / trellis=1 / 8x8dct=1 / cqm=0 / deadzone=21,11 / fast_pskip=1 / chroma_qp_offset=-2 / threads=18 / lookahead_threads=3 / sliced_threads=0 / nr=0 / decimate=1 / interlaced=0 / bluray_compat=0 / constrained_intra=0 / bframes=3 / b_pyramid=2 / b_adapt=2 / b_bias=0 / direct=3 / weightb=1 / open_gop=0 / weightp=2 / keyint=250 / keyint_min=25 / scenecut=40 / intra_refresh=0 / rc_lookahead=50 / rc=crf / mbtree=1 / crf=18.0 / qcomp=0.60 / qpmin=0 / qpmax=69 / qpstep=4 / ip_ratio=1.40 / aq=1:1.00
Default : Yes
Forced : No

Audio #1
ID : 2
Format : AC-3
Format/Info : Audio Coding 3
Mode extension : CM (complete main)
Codec ID : A_AC3
Duration : 45mn 7s
Bit rate mode : Constant
Bit rate : 384 Kbps
Channel(s) : 6 channels
Channel positions : Front: L C R, Side: L R, LFE
Sampling rate : 48.0 KHz
Bit depth : 16 bits
Compression mode : Lossy
Stream size : 124 MiB (12%)
Title : Rus BaibaKo.tv DD5.1
Language : Russian
Default : Yes
Forced : No

Audio #2
ID : 3
Format : AC-3
Format/Info : Audio Coding 3
Mode extension : CM (complete main)
Codec ID : A_AC3
Duration : 45mn 7s
Bit rate mode : Constant
Bit rate : 384 Kbps
Channel(s) : 6 channels
Channel positions : Front: L C R, Side: L R, LFE
Sampling rate : 48.0 KHz
Bit depth : 16 bits
Compression mode : Lossy
Stream size : 124 MiB (12%)
Title : Eng DD5.1
Language : English
Default : No
Forced : No



Скачать Хандерби.Hunderby.(сезон.01).(Тони.Дау).[2012.комедия.HDTVRip].[720p].[MVO.(Baibako)].torrent без регистрации
Золото ЗОЛОТАЯ РАЗДАЧА! СКАЧАННОЕ НЕ ЗАСЧИТЫВАЕТСЯ! Золото
Дата: Зарегистрирован   [ Тип: внутренний ] Как тут cкачать?
MAGNET ссылка
MAGNET ссылка


Скачать .torrent

30 KB

Статус: проверено DHT
Скачан: торрент - 121 раз, раздача полностью - 10 раз
Размер: 5,79 GB
Оценка:  - (Голосов: 0)
Поблагодарили: 0
Поделиться ссылкой на эту раздачу с друзьями:
В контактеFacebookОдноклассникиTwitterLivejournalМой МирLiveinternet
 

 
Показать сообщения:    


Вы не можете начинать темы
Вы не можете отвечать на сообщения
Вы не можете редактировать свои сообщения
Вы не можете удалять свои сообщения
Вы не можете голосовать в опросах
Вы не можете прикреплять файлы к сообщениям
Вы можете скачивать файлы