Loading...
Error

Скачать Побег из тюрьмы / The Escapist (Руперт Уайатт) [2008, триллер, драма, криминал, HDRip-AVC] [MVO] торрент без регистрации

 
Статистика раздачи
Размер:  2,19 GB   |    Скачан:  117 раз
Сидов:  1  [  0 KB/s  ]  
 
Автор Сообщение

МихаНЕзатор

[] 

Информация о фильме
Название: Побег из тюрьмы
Оригинальное название: The Escapist
Год выхода: 2008
Жанр: триллер, драма, криминал
Режиссер: Руперт Уайатт

В ролях: Брайан Кокс, Дамиан Льюис, Джозеф Файнс, Сеу Жоржи, Лиам Каннингэм, Доминик Купер, Стивен Макинтош, Нед Деннехи, Винни МакКейб, Джек Уолш

О фильме: Наверное, никому не надо доказывать, что жизнь в тюрьме это сущий ад. Конечно, и к нему можно попытаться приспособиться выбора все равно нет, остается смириться со своей незавидной участью. Особенно если судья вынес приговор о пожизненном заключении без права пересмотра дела. Но Фрэнк Перри не желает мириться с подобным положением дел. За стеной, в «нормальной» жизни у него осталась дочь, которая сейчас смертельно больна и очень нуждается в помощи. Ради девочки Фрэнк готов пойти на все. И вот Перри начинает готовить план побега. Осуществить такую авантюру в одиночку не представляется возможным, и тогда заключенный решает обратиться за помощью к таким же, как и он, отщепенцам, которым больше нечего терять. Отношения между сокамерниками далеко не дружеские, но ради общей цели освобождения они забудут о разногласиях и сосредоточатся на побеге. По крайней мере постараются.

Страна: Великобритания, Ирландия, UK Film Council, Irish Film Board
Продолжительность: 01:41:30
Перевод: Профессиональный многоголосый
Дата релиза: 25.03.2013

Файл
Кодек: H.264
Качество: HDRip-AVC
Видео: MPEG-4 AVC, 2199 Кбит/с, 1024x552
Звук: Русский, английский (AC3, 6 ch, 448 Кбит/с)



Релиз от: Автор релиза:
Общее
Уникальный идентификатор : 204754372810768029553484435089734875269 (0x9A0A41FE22AA17F59AC38ED69F85B885)
Полное имя : D:1Pobeg.iz.tjurmi.2008.x264.HDRip.(AVC).ExKinoRay.mkv
Формат : Matroska
Размер файла : 2,19 Гбайт
Продолжительность : 1 ч. 41 м.
Общий поток : 3088 Кбит/сек
Название фильма : Pobeg.iz.tjurmi.2008.x264.HDRip.(AVC).ExKinoRay
Дата кодирования : UTC 2013-03-25 14:00:45
Программа кодирования : mkvmerge v4.0.0 ('The Stars were mine') сборка от Jun 6 2010 16:18:42
Библиотека кодирования : libebml v1.0.0 + libmatroska v1.0.0

Видео
Идентификатор : 1
Формат : AVC
Формат/Информация : Advanced Video Codec
Профиль формата : High@L4.1
Параметр CABAC формата : Да
Параметр ReFrames формата : 8 кадров
Идентификатор кодека : V_MPEG4/ISO/AVC
Продолжительность : 1 ч. 41 м.
Битрейт : 2199 Кбит/сек
Ширина : 1024 пикс.
Высота : 552 пикс.
Соотношение сторон : 1,855
Частота кадров : 24,000 кадр/сек
Цветовое пространство : YUV
Подвыборка цветности : 4:2:0
Битовая глубина : 8 бит
Тип развёртки : Прогрессивная
Бит/(Пиксели*Кадры) : 0.162
Размер потока : 1,51 Гбайт (69%)
Заголовок : Rip by Enigma
Библиотека кодирования : x264 core 129 r2245 bc13772
Настройки программы : cabac=1 / ref=8 / deblock=1:-2:-2 / analyse=0x3:0x133 / me=umh / subme=11 / psy=1 / psy_rd=1.00:0.00 / mixed_ref=1 / me_range=48 / chroma_me=1 / trellis=2 / 8x8dct=1 / cqm=0 / deadzone=21,11 / fast_pskip=0 / chroma_qp_offset=-2 / threads=3 / lookahead_threads=1 / sliced_threads=0 / nr=0 / decimate=0 / interlaced=0 / bluray_compat=0 / constrained_intra=0 / bframes=8 / b_pyramid=2 / b_adapt=2 / b_bias=0 / direct=3 / weightb=1 / open_gop=0 / weightp=2 / keyint=240 / keyint_min=23 / scenecut=40 / intra_refresh=0 / rc_lookahead=40 / rc=2pass / mbtree=1 / bitrate=2199 / ratetol=1.0 / qcomp=0.60 / qpmin=10 / qpmax=51 / qpstep=4 / cplxblur=20.0 / qblur=0.5 / ip_ratio=1.40 / aq=2:1.00
Язык : English

Аудио #1
Идентификатор : 2
Формат : AC-3
Формат/Информация : Audio Coding 3
Расширение режима : CM (complete main)
Идентификатор кодека : A_AC3
Продолжительность : 1 ч. 41 м.
Вид битрейта : Постоянный
Битрейт : 448 Кбит/сек
Каналы : 6 каналов
Расположение каналов : Front: L C R, Side: L R, LFE
Частота : 48,0 КГц
Битовая глубина : 16 бит
Метод сжатия : С потерями
Размер потока : 326 Мбайт (15%)
Язык : Russian

Аудио #2
Идентификатор : 3
Формат : AC-3
Формат/Информация : Audio Coding 3
Расширение режима : CM (complete main)
Идентификатор кодека : A_AC3
Продолжительность : 1 ч. 41 м.
Вид битрейта : Постоянный
Битрейт : 448 Кбит/сек
Каналы : 6 каналов
Расположение каналов : Front: L C R, Side: L R, LFE
Частота : 48,0 КГц
Битовая глубина : 16 бит
Метод сжатия : С потерями
Размер потока : 326 Мбайт (15%)
Язык : English



Скачать Побег.из.тюрьмы.The.Escapist.(Руперт.Уайатт).[2008.триллер.драма.криминал.HDRip-AVC].[MVO].torrent без регистрации
Золото ЗОЛОТАЯ РАЗДАЧА! СКАЧАННОЕ НЕ ЗАСЧИТЫВАЕТСЯ! Золото
Дата: Зарегистрирован   [ Тип: внутренний ] Как тут cкачать?
MAGNET ссылка
MAGNET ссылка


Скачать .torrent

12 KB

Статус: проверено DHT
Скачан: торрент - 117 раз, раздача полностью - 121 раз
Размер: 2,19 GB
Оценка:  - (Голосов: 0)
Поблагодарили: 3
Поделиться ссылкой на эту раздачу с друзьями:
В контактеFacebookОдноклассникиTwitterLivejournalМой МирLiveinternet
 

 
Показать сообщения:    


Вы не можете начинать темы
Вы не можете отвечать на сообщения
Вы не можете редактировать свои сообщения
Вы не можете удалять свои сообщения
Вы не можете голосовать в опросах
Вы не можете прикреплять файлы к сообщениям
Вы можете скачивать файлы