Loading...
Error

Скачать Мужской стриптиз / The Full Monty (Питер Каттанео) [1997, комедия, BDRip-AVC] [MVO]+[AVO]+[Оригинал]+[Sub] торрент без регистрации

 
Статистика раздачи
Размер:  2,29 GB   |    Скачан:  117 раз
Сидов:  1  [  0 KB/s  ]  
 
Автор Сообщение

Marsianka

[] 

Информация о фильме
Название: Мужской стриптиз
Оригинальное название: The Full Monty
Год выхода: 1997
Жанр: комедия
Режиссер: Питер Каттанео
В ролях: Роберт Карлайл, Марк Эдди, Уильям Снейп, Стив Хисон, Том Уилкинсон, Пол Барбер, Хьюго Спир, Лесли Шарп, Эмили Вуф, Дирдри Костильо, Пол Баттерворф, Дэйв Хилл, Брюс Джонс, Эндрю Ливингстон, Винни Диллон, Кейт Лейден, Джоэнна Суэйн, Дайан Лэйн, Кейт Раттер, Джун Бротон, Гленн Каннингэм, Крис Брэйлсфорд, Стив Гэрти, Малкольм Питт, Дэннис Бленч, Дэрил Фишвик, Дэвид Лонсдэйл, Мюриэль Хант, Фиона Уоттс, Тереза Мадемезия

О фильме:
Безработица - страшная штука! Особенно если есть насущная необходимость отдавать кредит, обеспечивать семью или платить алименты! Что прикажете делать простым работягам, если единственный в городе сталелитейный завод закрыли? Почему же достойная и тяжелая профессия не смогла вас прокормить, а всякие там танцоры-вертихвосты живут себе припеваючи, кстати срывая аплодисменты у ваших же верных жён?!.. Но, как известно, "голь на выдумки хитра": и когда некуда деваться - придется и раздеваться! Не страшно, что пока совсем не получается то, что так опрометчиво решили повторить. Главное - найти того, кто научит. Думается, что не сбиваясь с такта избавляться от одежды, не труднее, чем вкалывать на заводе!



Страна: Великобритания
Студия: Channel Four Films, Redwave Films, Twentieth Century Fox Film Corporation
Продолжительность: 01:31:30
Перевод: Профессиональный (многоголосый закадровый) + авторский (одноголосый) (А. Боровик (Карповский)) + оригинал

Файл
Кодек: H.264
Качество: BDRip-AVC
Видео: MPEG-4 AVC, 2500 Кбит/с, 1024х554, 23.976 кадр/с
Звук:
Русский (АС3, 2 ch, 192 Кбит/с) / Профессиональный (многоголосый закадровый)
Русский (АС3, 6 ch, 448 Кбит/с) / Авторский (одноголосый) (А. Боровик (Карповский))
Английский (АС3, 6 ch, 448 Кбит/с)
Субтитры: Русские, английские

Семпл
General
Unique ID : 175865556042400816590767210647635499876 (0x844E795BC9F3ECCA80B4F58CEEAE1B64)
Complete name : D:2Films DMuzhskoj.striptiz.1997.x264.BDRip.AVC.MediaClub.mkv
Format : Matroska
Format version : Version 2
File size : 2.29 GiB
Duration : 1h 31mn
Overall bit rate : 3 589 Kbps
Movie name : = MediaClub = rip by Lefevr
Encoded date : UTC 2013-03-24 15:17:08
Writing application : mkvmerge v5.4.0 ('Piper') built on Mar 10 2012 13:34:39
Writing library : libebml v1.2.3 + libmatroska v1.3.0

Video
ID : 1
Format : AVC
Format/Info : Advanced Video Codec
Format profile : High@L4.1
Format settings, CABAC : Yes
Format settings, ReFrames : 9 frames
Codec ID : V_MPEG4/ISO/AVC
Duration : 1h 31mn
Bit rate : 2 500 Kbps
Width : 1 024 pixels
Height : 554 pixels
Display aspect ratio : 16:9
Frame rate : 23.976 fps
Color space : YUV
Chroma subsampling : 4:2:0
Bit depth : 8 bits
Scan type : Progressive
Bits/(Pixel*Frame) : 0.184
Stream size : 1.55 GiB (68%)
Title : Muzhskoj.striptiz.1997.x264.BDRip.AVC.MediaClub
Writing library : x264 core 125 r2208 d9d2288
Encoding settings : cabac=1 / ref=9 / deblock=1:-3:-3 / analyse=0x3:0x133 / me=umh / subme=11 / psy=1 / psy_rd=1.00:0.05 / mixed_ref=1 / me_range=32 / chroma_me=1 / trellis=2 / 8x8dct=1 / cqm=0 / deadzone=21,11 / fast_pskip=0 / chroma_qp_offset=-3 / threads=6 / lookahead_threads=1 / sliced_threads=0 / nr=0 / decimate=0 / interlaced=0 / bluray_compat=0 / constrained_intra=0 / bframes=8 / b_pyramid=2 / b_adapt=2 / b_bias=0 / direct=3 / weightb=1 / open_gop=0 / weightp=2 / keyint=240 / keyint_min=23 / scenecut=40 / intra_refresh=0 / rc=2pass / mbtree=0 / bitrate=2500 / ratetol=1.0 / qcomp=0.60 / qpmin=0 / qpmax=69 / qpstep=4 / cplxblur=20.0 / qblur=0.5 / ip_ratio=1.40 / pb_ratio=1.30 / aq=1:0.80
Language : English
Default : Yes
Forced : No

Audio #1
ID : 2
Format : AC-3
Format/Info : Audio Coding 3
Mode extension : CM (complete main)
Codec ID : A_AC3
Duration : 1h 31mn
Bit rate mode : Constant
Bit rate : 192 Kbps
Channel(s) : 2 channels
Channel positions : Front: L R
Sampling rate : 48.0 KHz
Bit depth : 16 bits
Compression mode : Lossy
Stream size : 126 MiB (5%)
Title : TRACK_01_MVO_RUS
Language : Russian
Default : Yes
Forced : No

Audio #2
ID : 3
Format : AC-3
Format/Info : Audio Coding 3
Mode extension : CM (complete main)
Codec ID : A_AC3
Duration : 1h 31mn
Bit rate mode : Constant
Bit rate : 448 Kbps
Channel(s) : 6 channels
Channel positions : Front: L C R, Side: L R, LFE
Sampling rate : 48.0 KHz
Bit depth : 16 bits
Compression mode : Lossy
Stream size : 293 MiB (12%)
Title : TRACK_02_AVO_Karpovskij_RUS
Language : Russian
Default : No
Forced : No

Audio #3
ID : 4
Format : AC-3
Format/Info : Audio Coding 3
Mode extension : CM (complete main)
Codec ID : A_AC3
Duration : 1h 31mn
Bit rate mode : Constant
Bit rate : 448 Kbps
Channel(s) : 6 channels
Channel positions : Front: L C R, Side: L R, LFE
Sampling rate : 48.0 KHz
Bit depth : 16 bits
Compression mode : Lossy
Stream size : 293 MiB (12%)
Title : TRACK_03_ORIGINAL_ENG
Language : English
Default : No
Forced : No

Text #1
ID : 5
Format : UTF-8
Codec ID : S_TEXT/UTF8
Codec ID/Info : UTF-8 Plain Text
Title : TEXT_01_SUB_RUS
Language : Russian
Default : No
Forced : No

Text #2
ID : 6
Format : UTF-8
Codec ID : S_TEXT/UTF8
Codec ID/Info : UTF-8 Plain Text
Title : TEXT_02_SUB_ENG
Language : English
Default : No
Forced : No

Menu
00:00:00.000 : en:Chapter 01
00:02:23.143 : en:Chapter 02
00:04:45.659 : en:Chapter 03
00:06:05.990 : en:Chapter 04
00:06:55.163 : en:Chapter 05
00:08:24.170 : en:Chapter 06
00:08:41.895 : en:Chapter 07
00:09:59.181 : en:Chapter 08
00:12:24.367 : en:Chapter 09
00:14:05.301 : en:Chapter 10
00:17:59.702 : en:Chapter 11
00:19:50.897 : en:Chapter 12
00:22:34.478 : en:Chapter 13
00:28:13.400 : en:Chapter 14
00:30:44.217 : en:Chapter 15
00:33:17.744 : en:Chapter 16
00:35:37.425 : en:Chapter 17
00:37:18.527 : en:Chapter 18
00:39:02.757 : en:Chapter 19
00:42:23.623 : en:Chapter 20
00:45:47.702 : en:Chapter 21
00:46:56.563 : en:Chapter 22
00:49:01.563 : en:Chapter 23
00:52:17.050 : en:Chapter 24
00:53:48.306 : en:Chapter 25
00:55:36.623 : en:Chapter 26
00:57:27.485 : en:Chapter 27
01:00:29.208 : en:Chapter 28
01:02:42.717 : en:Chapter 29
01:04:26.070 : en:Chapter 30
01:08:03.829 : en:Chapter 31
01:14:43.979 : en:Chapter 32
01:18:29.078 : en:Chapter 33
01:21:06.152 : en:Chapter 34
01:24:01.411 : en:Chapter 35
01:27:18.733 : en:Chapter 36
01:31:30.693 : en:Chapter 37
Релиз от:

За исходник спасибо: Stvstas by HDClub.
Автор рипа: Lefevr.



Скачать Мужской.стриптиз.The.Full.Monty.(Питер.Каттанео).[1997.комедия.BDRip-AVC].[MVO]+[AVO]+[Оригинал]+[Sub].torrent без регистрации
Золото ЗОЛОТАЯ РАЗДАЧА! СКАЧАННОЕ НЕ ЗАСЧИТЫВАЕТСЯ! Золото
Дата: Зарегистрирован   [ Тип: внутренний ] Как тут cкачать?
MAGNET ссылка
MAGNET ссылка


Скачать .torrent

12 KB

Статус: проверено DHT
Скачан: торрент - 117 раз, раздача полностью - 14 раз
Размер: 2,29 GB
Оценка:  - (Голосов: 0)
Поблагодарили: 2
Поделиться ссылкой на эту раздачу с друзьями:
В контактеFacebookОдноклассникиTwitterLivejournalМой МирLiveinternet
 

 
Показать сообщения:    


Вы не можете начинать темы
Вы не можете отвечать на сообщения
Вы не можете редактировать свои сообщения
Вы не можете удалять свои сообщения
Вы не можете голосовать в опросах
Вы не можете прикреплять файлы к сообщениям
Вы можете скачивать файлы