Loading...
Error

Скачать Ас из асов / L'as des as / Ace of Aces (Жерар Ури) [1982, комедия, приключения, спорт, HDRip] [Dub] торрент без регистрации

 
Статистика раздачи
Размер:  745 MB   |    Скачан:  123 раза
Сидов:  1  [  0 KB/s  ]  
 
Автор Сообщение

Marsianka

[] 

Информация о фильме
Название: Ас из асов
Оригинальное название: L'as des as / Ace of Aces
Год выхода: 1982
Жанр: комедия, приключения, спорт
Режиссер: Жерар Ури / Gerard Oury
В ролях: Жан-Поль Бельмондо, Мари-Франс Пизье, Рашид Ферраш, Франк Хоффманн, Гюнтер Майснер, Бенно Штерценбах, Ив Пиньо, Морис Озель, Петер Бонке

О фильме:
Джо Кавалье, летчик-ас Первой Мировой войны, бывший боксер и тренер сборной Франции по боксу, отправляется на Олимпиаду 1936 года в Берлин.
Обстоятельства складываются так, что он вынужден взять под свою защиту еврейского мальчика Симона Роземблюма и его многочисленную родню. Также судьба сталкивает его с очаровательной французской журналисткой



Страна: Франция, Германия (ФРГ)
Продолжительность: 01:43:53
Перевод: Профессиональный (дублированный)

Файл
Кодек: XviD
Качество: HDRip
Видео: 688х416 (1.654), 24 fps, 866 Kbps, 0.126 Bits/(Pixel*Frame)
Звук: MP3, 48 KHz, 128 Kbps, 2 channels

Семпл
General
Complete name : D:As.iz.asov.1982.HDRip.XviD.745mb.avi
Format : AVI
Format/Info : Audio Video Interleave
File size : 745 MiB
Duration : 1h 43mn
Overall bit rate : 1 003 Kbps
Writing application : VirtualDubMod 1.5.10.2 (build 2540/release)
Writing library : VirtualDubMod build 2540/release

Video
ID : 0
Format : MPEG-4 Visual
Format profile : Advanced Simple@L5
Format settings, BVOP : 1
Format settings, QPel : No
Format settings, GMC : No warppoints
Format settings, Matrix : Custom
Codec ID : XVID
Codec ID/Hint : XviD
Duration : 1h 43mn
Bit rate : 866 Kbps
Width : 688 pixels
Height : 416 pixels
Display aspect ratio : 1.654
Frame rate : 24.000 fps
Color space : YUV
Chroma subsampling : 4:2:0
Bit depth : 8 bits
Scan type : Progressive
Compression mode : Lossy
Bits/(Pixel*Frame) : 0.126
Stream size : 643 MiB (86%)
Writing library : XviD 1.2.1 (UTC 2008-12-04)

Audio
ID : 1
Format : MPEG Audio
Format version : Version 1
Format profile : Layer 3
Codec ID : 55
Codec ID/Hint : MP3
Duration : 1h 43mn
Bit rate mode : Constant
Bit rate : 128 Kbps
Channel(s) : 2 channels
Sampling rate : 48.0 KHz
Compression mode : Lossy
Stream size : 95.1 MiB (13%)
Alignment : Aligned on interleaves
Interleave, duration : 42 ms (1.00 video frame)
Interleave, preload duration : 504 ms
Writing library : LAME3.98r
Encoding settings : -m s -V 4 -q 2 -lowpass 17 -b 128











Скачать Ас.из.асов.L'as.des.as.Ace.of.Aces.(Жерар.Ури).[1982.комедия.приключения.спорт.HDRip].[Dub].torrent без регистрации
Золото ЗОЛОТАЯ РАЗДАЧА! СКАЧАННОЕ НЕ ЗАСЧИТЫВАЕТСЯ! Золото
Дата: Зарегистрирован   [ Тип: внутренний ] Как тут cкачать?
MAGNET ссылка
MAGNET ссылка


Скачать .torrent

15 KB

Статус: проверено DHT
Скачан: торрент - 123 раз, раздача полностью - 72 раз
Размер: 745 MB
Оценка:  - (Голосов: 0)
Поблагодарили: 2
Поделиться ссылкой на эту раздачу с друзьями:
В контактеFacebookОдноклассникиTwitterLivejournalМой МирLiveinternet
 

 
Показать сообщения:    


Вы не можете начинать темы
Вы не можете отвечать на сообщения
Вы не можете редактировать свои сообщения
Вы не можете удалять свои сообщения
Вы не можете голосовать в опросах
Вы не можете прикреплять файлы к сообщениям
Вы можете скачивать файлы