Loading...
Error

Скачать Операция «Валькирия» / Valkyrie (Брайан Сингер) [2008, военный исторический, BDRip - AVC] [DUB] торрент без регистрации

 
Статистика раздачи
Размер:  2,23 GB   |    Скачан:  143 раза

Полного источника не было: 25 минут

 
Автор Сообщение

and77200

[] 


Год выпуска: 2008
Страна: США, Германия
Жанр: триллер, драма, военный, история
Продолжительность: 02:00:20
Перевод: Профессиональный (полное дублирование)
Режиссер: Брайан Сингер / Bryan Singer

В ролях: Том Круз (Colonel Claus von Stauffenberg), Кеннет Брэна (Major-General Henning von Tresckow), Билл Найи (General Friedrich Olbricht), Том Уилкинсон (General Friedrich Fromm), Кэрис ван Хаутен (Nina von Stauffenberg), Томас Кречманн (Major Otto Ernst Remer), Теренс Стэмп (Ludwig Beck), Эдди Иззард (General Erich Fellgiebel), Кевин МакНэлли (Dr. Carl Goerdeler), Кристиан Беркель (Colonel Mertz von Quirnheim), Джейми Паркер (Lieutenant Werner von Haeften), Дэвид Бамбер (Adolf Hitler)
Описание: История героя сопротивления полковника Клауса фон Штауффенберга, возглавившего заговор против Гитлера. В 1944 году он попытался взорвать диктатора, пронеся в портфеле бомбу, но все, что ему удалось - только ранить фюрера.

Качество: BDRip - AVC
Контейнер: MKV
Видео кодек: AVC
Аудио кодек: AC3

Видео: AVC, 1024x552 (1.862), 2200 kbps, 23,976 fps, 0,162 bpp
Аудио: русский / AC3 / 5.1 / 48 kHz / 448 kbps / 16 bit
Рип: and77200



General
Complete name : E:\торрент\Операция Валькирия (2008)BDRip - AVC.mkv
Format : Matroska
File size : 2.23 GiB
Duration : 2h 0mn
Overall bit rate : 2 648 Kbps
Encoded date : UTC 2013-03-25 11:05:18
Writing application : mkvmerge v5.7.0 ('The Whirlwind') built on Jul 8 2012 20:08:51
Writing library : libebml v1.2.3 + libmatroska v1.3.0

Video
ID : 1
Format : AVC
Format/Info : Advanced Video Codec
Format profile : High@L4.1
Format settings, CABAC : Yes
Format settings, ReFrames : 5 frames
Muxing mode : Container profile=Unknown@4.1
Codec ID : V_MPEG4/ISO/AVC
Duration : 2h 0mn
Bit rate : 2 147 Kbps
Nominal bit rate : 2 200 Kbps
Width : 1 024 pixels
Height : 552 pixels
Display aspect ratio : 1.862
Frame rate mode : Variable
Frame rate : 23.976 fps
Resolution : 24 bits
Colorimetry : 4:2:0
Scan type : Progressive
Bits/(Pixel*Frame) : 0.158
Stream size : 1.80 GiB (81%)
Writing library : x264 core 124 r2197M 69a0443
Encoding settings : cabac=1 / ref=6 / deblock=1:0:0 / analyse=0x3:0x133 / me=umh / subme=9 / psy=1 / psy_rd=1.00:0.20 / mixed_ref=1 / me_range=16 / chroma_me=1 / trellis=0 / 8x8dct=1 / cqm=0 / deadzone=21,11 / fast_pskip=1 / chroma_qp_offset=-2 / threads=2 / sliced_threads=0 / nr=0 / decimate=1 / interlaced=0 / bluray_compat=0 / constrained_intra=0 / bframes=6 / b_pyramid=1 / b_adapt=0 / b_bias=0 / direct=3 / weightb=1 / open_gop=0 / weightp=0 / keyint=230 / keyint_min=23 / scenecut=40 / intra_refresh=0 / rc_lookahead=40 / rc=2pass / mbtree=1 / bitrate=2200 / ratetol=1.0 / qcomp=0.60 / qpmin=10 / qpmax=51 / qpstep=6 / cplxblur=20.0 / qblur=0.5 / ip_ratio=1.40 / aq=1:1.00

Audio
ID : 2
Format : AC-3
Format/Info : Audio Coding 3
Codec ID : A_AC3
Duration : 2h 0mn
Bit rate mode : Constant
Bit rate : 448 Kbps
Channel(s) : 6 channels
Channel positions : Front: L C R, Surround: L R, LFE
Sampling rate : 48.0 KHz
Stream size : 386 MiB (17%)
Language : Russian
Оформление by and77200



Скачать Операция.«Валькирия».Valkyrie.(Брайан.Сингер).[2008.военный.исторический.BDRip.-.AVC].[DUB].torrent без регистрации
Золото ЗОЛОТАЯ РАЗДАЧА! СКАЧАННОЕ НЕ ЗАСЧИТЫВАЕТСЯ! Золото
Дата: Зарегистрирован   [ Тип: внутренний ] Как тут cкачать?
MAGNET ссылка
MAGNET ссылка


Скачать .torrent

90 KB

Статус: проверено DHT
Скачан: торрент - 143 раз, раздача полностью - 39 раз
Размер: 2,23 GB
Оценка:  - (Голосов: 0)
Поблагодарили: 3
Поделиться ссылкой на эту раздачу с друзьями:
В контактеFacebookОдноклассникиTwitterLivejournalМой МирLiveinternet
 

 
Показать сообщения:    


Вы не можете начинать темы
Вы не можете отвечать на сообщения
Вы не можете редактировать свои сообщения
Вы не можете удалять свои сообщения
Вы не можете голосовать в опросах
Вы не можете прикреплять файлы к сообщениям
Вы можете скачивать файлы