Loading...
Error

Скачать С. Дарко / S. Darko (Крис Фишер) [2009, фантастика, триллер, криминал, детектив, BDRip-AVC] [DVO]+[VO]+[Оригинал]+[Sub] торрент без регистрации

 
Статистика раздачи
Размер:  2,18 GB   |    Скачан:  125 раз
Сидов:  1  [  0 KB/s  ]  
 
Автор Сообщение

Marsianka

[] 

С. Дарко / S. Darko (2009) BDRip-AVC

Информация о фильме
Название: С. Дарко
Оригинальное название: S. Darko
Год выхода: 2009
Жанр: фантастика, триллер, криминал, детектив
Режиссер: Крис Фишер

В ролях: Дэйви Чейз, Бриана Эвиган, Джеймс Лэфферти, Эд Вествик, Уолтер Платц, Джон Хоукс, Брэт Робертс, Джексон Рэтбоун, Элизабет Беркли, Барбара Тарбак

О фильме: Действие разворачивается спустя семь лет после событий первого фильма, вокруг вымахавшей восемнадцатилетней Саманты Дарко и ее лучшей подруги Кори. Отправившихся в путешествие до Лос-Анджелеса подростков начинает посещать странное видение.



Страна: США
Продолжительность: 01:43:09
Перевод: Профессиональный (двухголосый закадровый), Любительский (одноголосый закадровый), Оригинал (Английский)

Файл
Кодек: x.264
Качество: BDRip-AVC
Видео: 1024x576 (16:9), 23.976 fps, 2257 kbps, 0.160 bit/pixel
Аудио #1: 48 kHz, AC3 Dolby Digital, 2 ch, ~192.00 kbps (Двухголосый)
Аудио #2: 48 kHz, AC3 Dolby Digital, 2 ch, ~192.00 kbps (Любительский)
Аудио #3: 48 kHz, AC3 Dolby Digital, 6 ch, ~384.00 kbps (Оригинал)
Субтитры: Русские, Английские (отключаемые)
Семпл

&
Общее
Уникальный идентификатор : 183896849204601707498567049289181984615 (0x8A593EAEE4B23357AF388AFA893C7767)
Полное имя : F:РоздачиS. Darko.2009.BDRip-AVC.mkv
Формат : Matroska
Версия формата : Version 4 / Version 2
Размер файла : 2,18 Гбайт
Продолжительность : 1 ч. 43 м.
Общий поток : 3025 Кбит/сек
Название фильма : С. Дарко / S. Darko (2009) BDRip-AVC rip by Rulya74
Дата кодирования : UTC 2013-03-26 06:52:50
Программа кодирования : mkvmerge v6.1.0 ('Old Devil') built on Mar 2 2013 14:32:37
Библиотека кодирования : libebml v1.3.0 + libmatroska v1.4.0

Видео
Идентификатор : 1
Формат : AVC
Формат/Информация : Advanced Video Codec
Профиль формата : High@L4.1
Параметр CABAC формата : Да
Параметр ReFrames формата : 13 кадров
Идентификатор кодека : V_MPEG4/ISO/AVC
Продолжительность : 1 ч. 43 м.
Битрейт : 2257 Кбит/сек
Ширина : 1024 пикселя
Высота : 576 пикселей
Соотношение сторон : 16:9
Режим частоты кадров : Постоянный
Частота кадров : 23,976 кадра/сек
Цветовое пространство : YUV
Субдискретизация насыщенности : 4:2:0
Битовая глубина : 8 бит
Тип развёртки : Прогрессивная
Бит/(Пиксели*Кадры) : 0.160
Размер потока : 1,58 Гбайт (73%)
Библиотека кодирования : x264 core 130 r2273 b3065e6
Настройки программы : cabac=1 / ref=13 / deblock=1:-3:-2 / analyse=0x3:0x133 / me=umh / subme=10 / psy=1 / psy_rd=1.80:0.06 / mixed_ref=1 / me_range=48 / chroma_me=1 / trellis=2 / 8x8dct=1 / cqm=0 / deadzone=21,11 / fast_pskip=0 / chroma_qp_offset=-3 / threads=14 / lookahead_threads=3 / sliced_threads=0 / nr=0 / decimate=1 / interlaced=0 / bluray_compat=0 / constrained_intra=0 / bframes=11 / b_pyramid=2 / b_adapt=2 / b_bias=0 / direct=3 / weightb=1 / open_gop=0 / weightp=2 / keyint=240 / keyint_min=22 / scenecut=40 / intra_refresh=0 / rc_lookahead=40 / rc=2pass / mbtree=1 / bitrate=2257 / ratetol=1.0 / qcomp=0.60 / qpmin=0 / qpmax=69 / qpstep=4 / cplxblur=20.0 / qblur=0.5 / ip_ratio=1.40 / aq=1:1.00
Default : Да
Forced : Нет

Аудио #1
Идентификатор : 2
Формат : AC-3
Формат/Информация : Audio Coding 3
Расширение режима : CM (complete main)
Параметр Endianness формата : Big
Идентификатор кодека : A_AC3
Продолжительность : 1 ч. 43 м.
Вид битрейта : Постоянный
Битрейт : 192 Кбит/сек
Каналы : 2 канала
Расположение каналов : Front: L R
Частота : 48,0 КГц
Битовая глубина : 16 бит
Метод сжатия : С потерями
Размер потока : 142 Мбайт (6%)
Заголовок : Профессиональный (двухголосый закадровый)
Язык : Russian
Default : Да
Forced : Нет

Аудио #2
Идентификатор : 3
Формат : AC-3
Формат/Информация : Audio Coding 3
Расширение режима : CM (complete main)
Параметр Endianness формата : Big
Идентификатор кодека : A_AC3
Продолжительность : 1 ч. 43 м.
Вид битрейта : Постоянный
Битрейт : 192 Кбит/сек
Каналы : 2 канала
Расположение каналов : Front: L R
Частота : 48,0 КГц
Битовая глубина : 16 бит
Метод сжатия : С потерями
Размер потока : 142 Мбайт (6%)
Заголовок : Одноголосый закадровый
Язык : Russian
Default : Нет
Forced : Нет

Аудио #3
Идентификатор : 4
Формат : AC-3
Формат/Информация : Audio Coding 3
Расширение режима : CM (complete main)
Параметр Endianness формата : Big
Идентификатор кодека : A_AC3
Продолжительность : 1 ч. 43 м.
Вид битрейта : Постоянный
Битрейт : 384 Кбит/сек
Каналы : 6 каналов
Расположение каналов : Front: L C R, Side: L R, LFE
Частота : 48,0 КГц
Битовая глубина : 16 бит
Метод сжатия : С потерями
Размер потока : 283 Мбайт (13%)
Заголовок : Оригинал
Язык : English
Default : Нет
Forced : Нет

Текст #1
Идентификатор : 5
Формат : UTF-8
Идентификатор кодека : S_TEXT/UTF8
Идентификатор кодека/Информация : UTF-8 Plain Text
Язык : Russian
Default : Нет
Forced : Нет

Текст #2
Идентификатор : 6
Формат : UTF-8
Идентификатор кодека : S_TEXT/UTF8
Идентификатор кодека/Информация : UTF-8 Plain Text
Язык : English
Default : Нет
Forced : Нет

Меню
00:00:00.000 : en:Nightmares Rule / Main Title
00:02:06.501 : en:Car Trouble
00:06:35.186 : en:A Helping Hand
00:11:48.582 : en:The Man On The Windmill
00:14:10.808 : en:Message In A Bottle
00:17:39.600 : en:All The Time In The World
00:22:03.947 : en:The Princess Needs Help
00:24:20.542 : en:Getting Wasted
00:27:45.955 : en:To Be Somebody Else
00:32:02.587 : en:Why Me?
00:34:26.105 : en:Bandits On The Run
00:35:34.924 : en:Forces Are At Work
00:38:32.893 : en:The Mask
00:41:40.664 : en:Better Things To Do
00:44:01.847 : en:Strange, Beautiful Magic
00:46:06.346 : en:It's Already Begun
00:49:58.954 : en:What's Real, What's Not?
00:52:27.602 : en:Last Chance
00:55:07.512 : en:Taking It All Back
00:58:10.111 : en:When You Die
01:00:26.622 : en:Everything's Changing
01:03:40.274 : en:God's Will
01:10:52.248 : en:Eleven Hours Remain
01:13:19.061 : en:Holes In Their Hearts
01:20:06.802 : en:Fireworks
01:25:50.353 : en:Only You
01:28:50.325 : en:Wake Up, Start Over
01:37:28.384 : en:End Titles



Скачать С.Дарко.S.Darko.(Крис.Фишер).[2009.фантастика.триллер.криминал.детектив.BDRip-AVC].[DVO]+[VO]+[Оригинал]+[Sub].torrent без регистрации
Золото ЗОЛОТАЯ РАЗДАЧА! СКАЧАННОЕ НЕ ЗАСЧИТЫВАЕТСЯ! Золото
Дата: Зарегистрирован   [ Тип: внутренний ] Как тут cкачать?
MAGNET ссылка
MAGNET ссылка


Скачать .torrent

11 KB

Статус: проверено DHT
Скачан: торрент - 125 раз, раздача полностью - 17 раз
Размер: 2,18 GB
Оценка:  - (Голосов: 0)
Поблагодарили: 2
Поделиться ссылкой на эту раздачу с друзьями:
В контактеFacebookОдноклассникиTwitterLivejournalМой МирLiveinternet
 

 
Показать сообщения:    


Вы не можете начинать темы
Вы не можете отвечать на сообщения
Вы не можете редактировать свои сообщения
Вы не можете удалять свои сообщения
Вы не можете голосовать в опросах
Вы не можете прикреплять файлы к сообщениям
Вы можете скачивать файлы