Loading...
Error

Скачать По стопам отца / Sarkar (Рам Гопал Варма) [2005, драма, криминал, HDRip-AVC] [MVO]+[Sub] торрент без регистрации

 
Статистика раздачи
Размер:  2,11 GB   |    Скачан:  106 раз
Сидов:  1  [  0 KB/s  ]  
 
Автор Сообщение

Marsianka

[] 

Информация о фильме
Название: По стопам отца
Оригинальное название: Sarkar
Год выхода: 2005
Жанр: драма, криминал
Режиссер: Рам Гопал Варма
В ролях: Амитабх Баччан, Абхишек Баччан, Кай Кай Менон, Суприя Патхак, Рукхсар, Таниша Мукхерджи, Катрина Каиф, Анупам Кхер, Вирендра Саксена

О фильме:
Субшах Нагре местный индийский авторитет. Он, как может, пытается на своей территории сохранить дух справедливости и неприятия зла. Арабские мафиози, не получив его согласие на деятельность в его владениях, вступают в открытую конфронтацию. В центр этого конфликта оказывается вовлечен Шанкар, сын Субхаша, недавно приехавший из Америки. Субхаш, понимая, что началась схватка не на жизнь, а на смерть, уговаривает Шанкара вернуться в Америку, но тот не хочет оставлять отца в трудную минуту.



Страна: Индия
Продолжительность: 02:03:28
Перевод: Профессиональный многоголосый
Субтитры: Английские
Дата релиза: 27.03.2013

Файл
Кодек: H.264
Качество: HDRip-AVC
Видео: MPEG-4 AVC, 2000 Кбит/с, 1024x436
Звук: Русский (AC3, 6 ch, 448 Кбит/с)
Общее
Уникальный идентификатор : 200041713654274715717227168113218895949 (0x967EA1F50B5C51CD8B848977E2A9404D)
Полное имя : D:3Po.stopam.otca.2005.x264.HDRip.(AVC).ExKinoRay.mkv
Формат : Matroska
Размер файла : 2,11 Гбайт
Продолжительность : 2 ч. 3 м.
Общий поток : 2449 Кбит/сек
Название фильма : Po.stopam.otca.2005.x264.HDRip.(AVC).ExKinoRay
Дата кодирования : UTC 2013-03-27 16:03:25
Программа кодирования : mkvmerge v4.0.0 ('The Stars were mine') сборка от Jun 6 2010 16:18:42
Библиотека кодирования : libebml v1.0.0 + libmatroska v1.0.0

Видео
Идентификатор : 1
Формат : AVC
Формат/Информация : Advanced Video Codec
Профиль формата : High@L4.1
Параметр CABAC формата : Да
Параметр ReFrames формата : 8 кадров
Идентификатор кодека : V_MPEG4/ISO/AVC
Продолжительность : 2 ч. 3 м.
Битрейт : 2000 Кбит/сек
Ширина : 1024 пикс.
Высота : 436 пикс.
Соотношение сторон : 2,35:1
Частота кадров : 24,000 кадр/сек
Цветовое пространство : YUV
Подвыборка цветности : 4:2:0
Битовая глубина : 8 бит
Тип развёртки : Прогрессивная
Бит/(Пиксели*Кадры) : 0.187
Размер потока : 1,68 Гбайт (80%)
Заголовок : Rip by Enigma-Vladislav71
Библиотека кодирования : x264 core 129 r2245 bc13772
Настройки программы : cabac=1 / ref=8 / deblock=1:-2:-2 / analyse=0x3:0x133 / me=umh / subme=11 / psy=1 / psy_rd=1.00:0.00 / mixed_ref=1 / me_range=48 / chroma_me=1 / trellis=2 / 8x8dct=1 / cqm=0 / deadzone=21,11 / fast_pskip=0 / chroma_qp_offset=-2 / threads=3 / lookahead_threads=1 / sliced_threads=0 / nr=0 / decimate=0 / interlaced=0 / bluray_compat=0 / constrained_intra=0 / bframes=8 / b_pyramid=2 / b_adapt=2 / b_bias=0 / direct=3 / weightb=1 / open_gop=0 / weightp=2 / keyint=240 / keyint_min=23 / scenecut=40 / intra_refresh=0 / rc_lookahead=40 / rc=2pass / mbtree=1 / bitrate=2000 / ratetol=1.0 / qcomp=0.60 / qpmin=10 / qpmax=51 / qpstep=4 / cplxblur=20.0 / qblur=0.5 / ip_ratio=1.40 / aq=2:1.00
Язык : English

Аудио
Идентификатор : 2
Формат : AC-3
Формат/Информация : Audio Coding 3
Расширение режима : CM (complete main)
Идентификатор кодека : A_AC3
Продолжительность : 2 ч. 3 м.
Вид битрейта : Постоянный
Битрейт : 448 Кбит/сек
Каналы : 6 каналов
Расположение каналов : Front: L C R, Side: L R, LFE
Частота : 48,0 КГц
Битовая глубина : 16 бит
Метод сжатия : С потерями
Размер потока : 396 Мбайт (18%)
Язык : Russian

Текст
Идентификатор : 3
Формат : UTF-8
Идентификатор кодека : S_TEXT/UTF8
Идентификатор кодека/Информация : UTF-8 Plain Text
Язык : English
Семпл Релиз от:

Авторы релиза:



Скачать По.стопам.отца.Sarkar.(Рам.Гопал.Варма).[2005.драма.криминал.HDRip-AVC].[MVO]+[Sub].torrent без регистрации
Золото ЗОЛОТАЯ РАЗДАЧА! СКАЧАННОЕ НЕ ЗАСЧИТЫВАЕТСЯ! Золото
Дата: Зарегистрирован   [ Тип: внутренний ] Как тут cкачать?
MAGNET ссылка
MAGNET ссылка


Скачать .torrent

11 KB

Статус: проверено DHT
Скачан: торрент - 106 раз, раздача полностью - 7 раз
Размер: 2,11 GB
Оценка:  - (Голосов: 0)
Поблагодарили: 0
Поделиться ссылкой на эту раздачу с друзьями:
В контактеFacebookОдноклассникиTwitterLivejournalМой МирLiveinternet
 

 
Показать сообщения:    


Вы не можете начинать темы
Вы не можете отвечать на сообщения
Вы не можете редактировать свои сообщения
Вы не можете удалять свои сообщения
Вы не можете голосовать в опросах
Вы не можете прикреплять файлы к сообщениям
Вы можете скачивать файлы