Loading...
Error

Скачать Железная маска / Le masque de fer (1962) DVDRip][Dub]+[MVO] торрент без регистрации

 
Статистика раздачи
Размер:  747 MB   |    Скачан:  212 раз
Сидов:  1  [  0 KB/s  ]  
 
Автор Сообщение

Marsianka

[] 

Год выпуска: 1962
Страна: Италия, Франция
Производство: Ceres Films, Films Marly, Fucha Productions, Soci™t™ Nouvelle des ytablissements Gaumont (SNEG)
Жанр: приключения
Продолжительность: 02:07:52
Профессиональный (полное дублирование) «Союзмультфильм»
Перевод: Профессиональный (многоголосый, закадровый) ТВЦ
Перевод: Профессиональный (многоголосый, закадровый) Светла
Субтитры: нет
Оригинальная аудиодорожка: нет
Режиссер: Анри Декуэн / Henri Decoin

В ролях: Жан Маре (Charles d'Artagnan), Сильва Кошина (Marion), Жан-Франсуа Порон (Henri / Louis XIV), Жизель Паскаль (Mme de Chaulmes), Филипп Лемэр (De Vaudreuil), Ноэль Роквер (M. de Saint-Mars), Жан Рошфор (Lastreaumont), Клодин Оже (Isabelle de Saint-Mars), Жермен Монтеро (Ann d'Autriche), Энрико Мария Салерно (Mazarin), Жан Дави (Marchal of Turenne), Раймон Жером (Pimentel)...

Роли дублировали: Алексей Консовский (Charles d'Artagnan), Виктория Чаева (Marion), Виктор Рождественский (Henri / Louis XIV), Вера Васильева (Mme de Chaulmes), Николай Александрович (De Vaudreuil), Сергей Цейц (M. de Saint-Mars), Артем Карапетян (Lastreaumont), Нина Крачковская (Isabelle de Saint-Mars), Нина Никитина (Ann d'Autriche), Алексей Алексеев (Mazarin), Феликс Яворский (Renaud de Lourmes)...

Описание: В крепости на далеком острове где-то в Средиземном море томится анонимный пленник. Под страхом смертной казни никто не смеет видеть узника без маски, скрывающей его лицо. А на другом конце воюющей Европы, в Париже, сильнейшая лихорадка привела на грань жизни и смерти Его Величество Людовика XIV, молодого короля Франции.
Под угрозой подписание мирного договора с Испанией, главным условием которого должен стать союз Людовика XIV и Инфанты Испанской. Не будет короля не будет выгодной свадьбы и долгожданного мира.
В этот драматический момент интриган и умница кардинал Мазарини поручает капитану ДАртаньяну весьма щекотливое дело доставить в Париж живым и невредимым таинственного пленника брата-близнеца короля. Задание опасное и непростое, но капитан королевских мушкетеров азартен, отважен и молод душой


Исходник: BD-Remux
Тип релиза: BDRip
Контейнер: AVI

Видео: 688x288 (2,40:1), 25 fps, XviD ~ 679 kbps avg, 0.143 bit/pixel
Аудио: 48 kHz, Dolby AC3 2.0, 192 kbps

Раздача от:

Общее
Полное имя : Zheleznaja.maska.1962.BDRip-745_[Youtracker]_by_AVP Studio.avi
Формат : AVI
Формат/Информация : Audio Video Interleave
Размер файла : 747 Мбайт
Продолжительность : 2 ч. 7 м.
Общий поток : 817 Кбит/сек
Программа кодирования : VirtualDubMod 1.5.10.3 | www.virtualdub-fr.org || (build 2550/release)
Библиотека кодирования : VirtualDubMod build 2550/release

Видео
Идентификатор : 0
Формат : MPEG-4 Visual
Профиль формата : Advanced Simple@L5
Параметр BVOP формата : 1
Параметр QPel формата : Нет
Параметр GMC формата : Без точки перехода
Параметр матрицы формата : Выборочная
Идентификатор кодека : XVID
Идентификатор кодека/Подсказка : XviD
Продолжительность : 2 ч. 7 м.
Битрейт : 679 Кбит/сек
Ширина : 688 пикселей
Высота : 288 пикселей
Соотношение сторон : 2,40:1
Частота кадров : 24,000 кадра/сек
Цветовое пространство : YUV
Субдискретизация насыщенности : 4:2:0
Битовая глубина : 8 бит
Тип развёртки : Прогрессивная
Метод сжатия : С потерями
Бит/(Пиксели*Кадры) : 0.143
Размер потока : 621 Мбайт (83%)
Библиотека кодирования : XviD 65

Аудио
Идентификатор : 1
Формат : MPEG Audio
Версия формата : Version 1
Профиль формата : Layer 3
Идентификатор кодека : 55
Идентификатор кодека/Подсказка : MP3
Продолжительность : 2 ч. 7 м.
Вид битрейта : Постоянный
Битрейт : 128 Кбит/сек
Каналы : 2 канала
Частота : 48,0 КГц
Метод сжатия : С потерями
Размер потока : 117 Мбайт (16%)
Выравнивание : Соединение по промежуткам
Продолжительность промежутка : 42 мс. (1,00 видеокадр)
Время предзагрузки промежутка : 504 мс.
Библиотека кодирования : L3.99r
Настройки программы : -m s -V 4 -q 2 -lowpass 17 -b 128



Скачать Железная.маска.Le.masque.de.fer.(1962).DVDRip][Dub]+[MVO].torrent без регистрации
Золото ЗОЛОТАЯ РАЗДАЧА! СКАЧАННОЕ НЕ ЗАСЧИТЫВАЕТСЯ! Золото
Дата: Зарегистрирован   [ Тип: внутренний ] Как тут cкачать?
MAGNET ссылка
MAGNET ссылка


Скачать .torrent

15 KB

Статус: проверено DHT
Скачан: торрент - 212 раз, раздача полностью - 53 раз
Размер: 747 MB
Оценка:  - (Голосов: 0)
Поблагодарили: 1
Поделиться ссылкой на эту раздачу с друзьями:
В контактеFacebookОдноклассникиTwitterLivejournalМой МирLiveinternet
 

 
Показать сообщения:    


Вы не можете начинать темы
Вы не можете отвечать на сообщения
Вы не можете редактировать свои сообщения
Вы не можете удалять свои сообщения
Вы не можете голосовать в опросах
Вы не можете прикреплять файлы к сообщениям
Вы можете скачивать файлы