Loading...
Error

Скачать Неуязвимая мишень / Naam yi boon sik / Invisible Target (Бенни Чан) [2007, боевик, криминал, BDRip-AVC] [MVO]+[Dub]+[Sub] торрент без регистрации

 
Статистика раздачи
Размер:  2,18 GB   |    Скачан:  115 раз

Полного источника не было: 25 минут

 
Автор Сообщение

Marsianka

[] 

Неуязвимая мишень / Naam yi boon sik / Invisible Target (2007) BDRip-AVC

Информация о фильме
Название: Неуязвимая мишень
Оригинальное название: Naam yi boon sik / Invisible Target
Год выхода: 2007
Жанр: боевик, криминал
Режиссер: Бенни Чан

В ролях: Николас Тсе, Джейси Чан, Шон Юе, Джеки Ву, Лиза Лу, Энди Он, Кэнди Лью , Elanne Kwong, Сэм Ли, Кен Ло, Винсент Сзе, Мей Ванг Ксуе...

О фильме: Во время ограбления инкассаторского броневика случайно погибает девушка, покупавшая обручальное кольцо в соседнем магазине. Ее жених, простой гонконгский полицейский, никак не может пережить смерть любимой, поэтому и соглашается отныне на самые отчаянные операции. Однажды его команда выходит на тех самых налетчиков, из-за которых и погибла его невеста. Отныне герой готов ради их поимки пойти на любые жертвы и что самое важное таких как он еще двое



Страна: Гонконг, Китай
Продолжительность: 02:10:12
Перевод: Профессионвльный (многоголосый закадровый), Дублированный (Английский)

Файл
Кодек: x.264
Качество: BDRip-AVC
Видео: 1024x436 (2,35:1), 23.976 fps, 1630 kbps, 0.152 bit/pixel
Аудио #1: 48 kHz, AC3 Dolby Digital, 6 ch, ~384.00 kbps (Русский)
Аудио #2: 48 kHz, AC3 Dolby Digital, 6 ch, ~384.00 kbps (Английский)
Субтитры: Русские, Английские (отключаемые)
Семпл

&
Общее
Уникальный идентификатор : 242716533486582203009623460934781097438 (0xB699810517E28548B62DE04EDE59D5DE)
Полное имя : D:Naam yi boon sik.2007.BDRip-AVC.mkv
Формат : Matroska
Версия формата : Version 4 / Version 2
Размер файла : 2,18 Гбайт
Продолжительность : 2 ч. 10 м.
Общий поток : 2397 Кбит/сек
Название фильма : Неуязвимая мишень / Naam yi boon sik / Invisible Target (2007) BDRip-AVC rip by Rulya74
Дата кодирования : UTC 2013-03-28 13:01:51
Программа кодирования : mkvmerge v6.1.0 ('Old Devil') built on Mar 2 2013 14:32:37
Библиотека кодирования : libebml v1.3.0 + libmatroska v1.4.0

Видео
Идентификатор : 1
Формат : AVC
Формат/Информация : Advanced Video Codec
Профиль формата : High@L4.1
Параметр CABAC формата : Да
Параметр ReFrames формата : 10 кадров
Идентификатор кодека : V_MPEG4/ISO/AVC
Продолжительность : 2 ч. 10 м.
Битрейт : 1630 Кбит/сек
Ширина : 1024 пикселя
Высота : 436 пикселей
Соотношение сторон : 2,35:1
Режим частоты кадров : Постоянный
Частота кадров : 23,976 кадра/сек
Цветовое пространство : YUV
Субдискретизация насыщенности : 4:2:0
Битовая глубина : 8 бит
Тип развёртки : Прогрессивная
Бит/(Пиксели*Кадры) : 0.152
Размер потока : 1,44 Гбайт (66%)
Библиотека кодирования : x264 core 130 r2273 b3065e6
Настройки программы : cabac=1 / ref=10 / deblock=1:-3:-3 / analyse=0x3:0x133 / me=umh / subme=10 / psy=1 / psy_rd=1.00:0.10 / mixed_ref=1 / me_range=32 / chroma_me=1 / trellis=2 / 8x8dct=1 / cqm=0 / deadzone=21,11 / fast_pskip=0 / chroma_qp_offset=-3 / threads=14 / lookahead_threads=3 / sliced_threads=0 / nr=0 / decimate=1 / interlaced=0 / bluray_compat=0 / constrained_intra=0 / bframes=12 / b_pyramid=2 / b_adapt=2 / b_bias=0 / direct=3 / weightb=1 / open_gop=0 / weightp=2 / keyint=240 / keyint_min=22 / scenecut=40 / intra_refresh=0 / rc_lookahead=40 / rc=2pass / mbtree=1 / bitrate=1630 / ratetol=1.0 / qcomp=0.60 / qpmin=0 / qpmax=69 / qpstep=4 / cplxblur=20.0 / qblur=0.5 / vbv_maxrate=62500 / vbv_bufsize=78125 / nal_hrd=none / ip_ratio=1.40 / aq=1:1.00
Default : Да
Forced : Нет

Аудио #1
Идентификатор : 2
Формат : AC-3
Формат/Информация : Audio Coding 3
Расширение режима : CM (complete main)
Параметр Endianness формата : Big
Идентификатор кодека : A_AC3
Продолжительность : 2 ч. 10 м.
Вид битрейта : Постоянный
Битрейт : 384 Кбит/сек
Каналы : 6 каналов
Расположение каналов : Front: L C R, Side: L R, LFE
Частота : 48,0 КГц
Битовая глубина : 16 бит
Метод сжатия : С потерями
Размер потока : 358 Мбайт (16%)
Заголовок : Профессиональный (многоголосый закадровый)
Язык : Russian
Default : Да
Forced : Нет

Аудио #2
Идентификатор : 3
Формат : AC-3
Формат/Информация : Audio Coding 3
Расширение режима : CM (complete main)
Параметр Endianness формата : Big
Идентификатор кодека : A_AC3
Продолжительность : 2 ч. 10 м.
Вид битрейта : Постоянный
Битрейт : 384 Кбит/сек
Каналы : 6 каналов
Расположение каналов : Front: L C R, Side: L R, LFE
Частота : 48,0 КГц
Битовая глубина : 16 бит
Метод сжатия : С потерями
Размер потока : 358 Мбайт (16%)
Заголовок : Английский (Дублированный)
Язык : English
Default : Нет
Forced : Нет

Текст #1
Идентификатор : 4
Формат : UTF-8
Идентификатор кодека : S_TEXT/UTF8
Идентификатор кодека/Информация : UTF-8 Plain Text
Язык : Russian
Default : Нет
Forced : Нет

Текст #2
Идентификатор : 5
Формат : UTF-8
Идентификатор кодека : S_TEXT/UTF8
Идентификатор кодека/Информация : UTF-8 Plain Text
Язык : English
Default : Нет
Forced : Нет

Меню
00:00:00.000 : en:00:00:00.000
00:07:32.452 : en:00:07:32.452
00:10:45.728 : en:00:10:45.728
00:15:35.393 : en:00:15:35.393
00:19:53.442 : en:00:19:53.442
00:25:40.038 : en:00:25:40.038
00:33:58.119 : en:00:33:58.119
00:41:01.584 : en:00:41:01.584
00:45:09.790 : en:00:45:09.790
00:53:03.389 : en:00:53:03.389
01:03:32.726 : en:01:03:32.726
01:11:33.164 : en:01:11:33.164
01:15:49.754 : en:01:15:49.754
01:23:20.913 : en:01:23:20.913
01:27:12.727 : en:01:27:12.727
01:34:59.235 : en:01:34:59.235
01:42:14.628 : en:01:42:14.628
01:48:21.787 : en:01:48:21.787
02:00:53.621 : en:02:00:53.621
02:06:37.590 : en:02:06:37.590



Скачать Неуязвимая.мишень.Naam.yi.boon.sik.Invisible.Target.(Бенни.Чан).[2007.боевик.криминал.BDRip-AVC].[MVO]+[Dub]+[Sub].torrent без регистрации
Золото ЗОЛОТАЯ РАЗДАЧА! СКАЧАННОЕ НЕ ЗАСЧИТЫВАЕТСЯ! Золото
Дата: Зарегистрирован   [ Тип: внутренний ] Как тут cкачать?
MAGNET ссылка
MAGNET ссылка


Скачать .torrent

11 KB

Статус: проверено DHT
Скачан: торрент - 115 раз, раздача полностью - 30 раз
Размер: 2,18 GB
Оценка:  - (Голосов: 0)
Поблагодарили: 0
Поделиться ссылкой на эту раздачу с друзьями:
В контактеFacebookОдноклассникиTwitterLivejournalМой МирLiveinternet
 

 
Показать сообщения:    


Вы не можете начинать темы
Вы не можете отвечать на сообщения
Вы не можете редактировать свои сообщения
Вы не можете удалять свои сообщения
Вы не можете голосовать в опросах
Вы не можете прикреплять файлы к сообщениям
Вы можете скачивать файлы