Loading...
Error

Скачать Поле битвы - Земля / Battlefield Earth: A Saga of the Year 3000 (Роджер Кристиан) [2000, фантастика, боевик, триллер, DVDRip-AVC] [Dub] торрент без регистрации

 
Статистика раздачи
Размер:  1,44 GB   |    Скачан:  127 раз

Полного источника не было: 19 минут

 
Автор Сообщение

МихаНЕзатор

[] 

Поле битвы - Земля / Battlefield Earth: A Saga of the Year 3000


Русское название: Поле битвы - Земля
Оригинальное название: Battlefield Earth: A Saga of the Year 3000
Год выпуска: 2000
Жанр: фантастика, боевик, триллер
Режиссер: Роджер Кристиан / Roger Christian
Актеры: Джон Траволта , Бэрри Пеппер , Форест Уитакер , Ким Коутс , Сабина Карсенти , Майкл Бирн , Кристиан Тессьер , Сильвен Ландри , Ричард Тайсон , Кристофер Фриман


3000 год. Уже десять веков Землей правит жестокая раса пришельцев. Поработив людей, гиганты Сайклосы превратили завоеванную планету в источник сырья для своего далекого мира. Избежавшие смерти и рабства земляне первобытными племенами рассеялись по горам и лесам. Но однажды, получив доступ к оружию и технологиям пришельцев, они поднимают восстание. Начинается новая звездная война, в которой одна из цивилизаций обречена на уничтожение

Производство: США
Продолжительность: 01:52:51
Перевод: Дублированный

Дата мировой премьеры: 10 мая 2000
Дата российской премьеры: 28 июня 2000

Качество: DVDRip-AVC
Видео: 718x428@1020x428,1440 kbps, 25,000 кадров/сек
Аудио: 48 kHz, AC3 Dolby Digital, 3/2 (L,C,R,l,r) + LFE ch, ~384 kbps Дубляж (лицензия Pyramid Video)

Формат : Matroska
Размер файла : 1,44 Гбайт
Продолжительность : 1 ч. 52 м.
Общий поток : 1826 Кбит/сек
Дата кодирования : UTC 2012-10-29 06:59:44
Программа кодирования : mkvmerge v5.2.1 ('A Far Off Place') built on Jan 2 2012 23:21:10
Библиотека кодирования : libebml v1.2.3 + libmatroska v1.3.0

Видео
Идентификатор : 1
Формат : AVC
Формат/Информация : Advanced Video Codec
Профиль формата : High@L4.1
Параметр CABAC формата : Да
Параметр ReFrames формата : 5 кадров
Идентификатор кодека : V_MPEG4/ISO/AVC
Продолжительность : 1 ч. 52 м.
Битрейт : 1440 Кбит/сек
Ширина : 718 пикс.
Высота : 428 пикс.
Соотношение сторон : 2,35:1
Частота кадров : 25,000 кадр/сек
Цветовое пространство : YUV
Подвыборка цветности : 4:2:0
Битовая глубина : 8 бит
Тип развёртки : Прогрессивная
Бит/(Пиксели*Кадры) : 0.187
Размер потока : 1,11 Гбайт (77%)
Библиотека кодирования : x264 core 120 r2164 da19765
Настройки программы : cabac=1 / ref=5 / deblock=1:-1:-1 / analyse=0x3:0x133 / me=umh / subme=8 / psy=1 / psy_rd=1.00:0.15 / mixed_ref=1 / me_range=16 / chroma_me=1 / trellis=2 / 8x8dct=1 / cqm=0 / deadzone=21,11 / fast_pskip=1 / chroma_qp_offset=-3 / threads=3 / sliced_threads=0 / nr=0 / decimate=1 / interlaced=0 / bluray_compat=0 / constrained_intra=0 / bframes=3 / b_pyramid=2 / b_adapt=2 / b_bias=0 / direct=3 / weightb=1 / open_gop=0 / weightp=2 / keyint=250 / keyint_min=25 / scenecut=40 / intra_refresh=0 / rc_lookahead=50 / rc=2pass / mbtree=1 / bitrate=1440 / ratetol=1.0 / qcomp=0.60 / qpmin=10 / qpmax=51 / qpstep=4 / cplxblur=20.0 / qblur=0.5 / ip_ratio=1.40 / aq=1:1.00
Язык : English

Аудио
Идентификатор : 2
Формат : AC-3
Формат/Информация : Audio Coding 3
Расширение режима : CM (complete main)
Идентификатор кодека : A_AC3
Продолжительность : 1 ч. 52 м.
Вид битрейта : Постоянный
Битрейт : 384 Кбит/сек
Каналы : 6 каналов
Расположение каналов : Front: L C R, Side: L R, LFE
Частота : 48,0 КГц
Битовая глубина : 16 бит
Метод сжатия : С потерями
Размер потока : 310 Мбайт (21%)
Язык : Russian

Меню
00:00:00.000 : en:Chapter 01
00:05:35.920 : en:Chapter 02
00:11:13.400 : en:Chapter 03
00:16:42.040 : en:Chapter 04
00:19:00.360 : en:Chapter 05
00:24:05.600 : en:Chapter 06
00:28:24.560 : en:Chapter 07
00:33:19.920 : en:Chapter 08
00:36:09.440 : en:Chapter 09
00:40:21.640 : en:Chapter 10
00:45:19.080 : en:Chapter 11
00:51:14.760 : en:Chapter 12
00:54:19.880 : en:Chapter 13
00:59:57.360 : en:Chapter 14
01:04:31.920 : en:Chapter 15
01:08:24.880 : en:Chapter 16
01:12:38.640 : en:Chapter 17
01:15:59.880 : en:Chapter 18
01:20:23.000 : en:Chapter 19
01:25:10.040 : en:Chapter 20
01:30:06.440 : en:Chapter 21
01:35:36.640 : en:Chapter 22
01:42:39.920 : en:Chapter 23
01:46:01.160 : en:Chapter 24
01:52:50.920 : en:Chapter 25



Скачать Поле.битвы.-.Земля.Battlefield.Earth.A.Saga.of.the.Year.3000.(Роджер.Кристиан).[2000.фантастика.боевик.триллер.DVDRip-AVC].[Dub].torrent без регистрации
Золото ЗОЛОТАЯ РАЗДАЧА! СКАЧАННОЕ НЕ ЗАСЧИТЫВАЕТСЯ! Золото
Дата: Зарегистрирован   [ Тип: внутренний ] Как тут cкачать?
MAGNET ссылка
MAGNET ссылка


Скачать .torrent

29 KB

Статус: проверено DHT
Скачан: торрент - 127 раз, раздача полностью - 120 раз
Размер: 1,44 GB
Оценка:  5 (Голосов: 1)
Поблагодарили: 2
Поделиться ссылкой на эту раздачу с друзьями:
В контактеFacebookОдноклассникиTwitterLivejournalМой МирLiveinternet
 

 
Показать сообщения:    


Вы не можете начинать темы
Вы не можете отвечать на сообщения
Вы не можете редактировать свои сообщения
Вы не можете удалять свои сообщения
Вы не можете голосовать в опросах
Вы не можете прикреплять файлы к сообщениям
Вы можете скачивать файлы