Loading...
Error

Скачать Аэропорт 1975 / Airport 1975 (Джек Смайт) [1974, Боевик, триллер, драма, DVDRip] [AVC] [FilmoRay VS Sheikn] [MVO] торрент без регистрации

 
Статистика раздачи
Размер:  2,13 GB   |    Скачан:  5358 раз
Сидов:  1  [  0 KB/s  ]  
 
Автор Сообщение

Sheikn

[] 

Информация о фильме
Название: Аэропорт 1975
Оригинальное название: Airport 1975
Год выхода: 1974
Жанр: Боевик, триллер, драма
Режиссер: Джек Смайт
В ролях: Чарлтон Хестон, Карен Блэк, Джордж Кеннеди, Ефрем Цимбалист мл., Сьюзен Кларк, Хелен Редди, Линда Блэр, Дэна Эндрюс, Рой Тиннес, Сид Сизар, Мирна Лой, Эд Нельсон, Нэнси Олсон, Ларри Сторч, Марта Скотт, Джерри Стиллер, Норман Фелл, Конрад Дженис, Беверли Гарлэнд, Линда Харрисон, Гай Стокуэлл, Эрик Эстрада, Кип Нивен, Чарльз Уайт, Брайан Моррисон, Эми Фаррелл, Ирэн Тсу, Кен Сэнсом, Алан Фьюдж, Кристофер Норрис, Остин Стокер, Джон Луптон, Джин Динарски, Шэрон Глесс, Лоретт Спанг, Глория Суонсон, Мэри Маргарет Амато, Сэльма Арчерд, Барбара Балдавин

О фильме: Небольшой частный самолет, неожиданно потерявший управление, на полном ходу врезается в «Боинг» Колумбийских авиалиний, выполняющий рейс N 409 Вашингтон Лос-Анджелес. Второй пилот и бортинженер авиалайнера погибают, а капитан корабля теряет зрение. Радиосвязь с землей утеряна. Стюардесса Нэнси Прайор, пытающаяся успокоить пассажиров, понимает, что только счастливый случай может спасти несущийся над бездной самолет



Страна: США / Universal Pictures
Продолжительность: 01:42:00
Перевод: Профессиональный, многоголосый
Дата релиза: 31.03.2013

Файл
Кодек: MPEG-4 AVC
Качество: DVDRip (AVC)
Видео: 1024x432, 2800 Кбит/с
Звук: АС3, 2 ch, 192 Кбит/с

Семпл
Unique ID : 216069356089202824950590918369013025713 (0xA28D71BD5C5D0D8DB8719254A65E4BB1)
Complete name : Ajeroport.1975.1974.х264.DVDRip.(AVС).Filmoray.Sheikn.mkv
Format : Matroska
Format version : Version 2
File size : 2.13 GiB
Duration : 1h 42mn
Overall bit rate : 2 994 Kbps
Encoded date : UTC 2013-01-03 19:25:30
Writing application : mkvmerge v5.0.1 ('Es ist Sommer') built on Nov 6 2011 16:23:40
Writing library : libebml v1.2.2 + libmatroska v1.3.0
Video #1
ID : 1
Format : AVC
Format/Info : Advanced Video Codec
Format profile : High@L4.1
Format settings, CABAC : Yes
Format settings, ReFrames : 5 frames
Codec ID : V_MPEG4/ISO/AVC
Duration : 1h 42mn
Bit rate : 2 800 Kbps
Width : 1 024 pixels
Height : 432 pixels
Display aspect ratio : 2.35:1
Frame rate mode : Constant
Frame rate : 25.000 fps
Color space : YUV
Chroma subsampling : 4:2:0
Bit depth : 8 bits
Scan type : Progressive
Bits/(Pixel*Frame) : 0.253
Stream size : 1.95 GiB (92%)
Writing library : x264 core 119 r2106 07efeb4
Encoding settings : cabac=1 / ref=5 / deblock=1:-2:-2 / analyse=0x3:0x113 / me=hex / subme=8 / psy=1 / psy_rd=1.00:0.00 / mixed_ref=1 / me_range=16 / chroma_me=1 / trellis=2 / 8x8dct=1 / cqm=0 / deadzone=21,11 / fast_pskip=1 / chroma_qp_offset=-2 / threads=6 / sliced_threads=0 / nr=0 / decimate=1 / interlaced=0 / bluray_compat=0 / constrained_intra=0 / bframes=5 / b_pyramid=2 / b_adapt=1 / b_bias=0 / direct=1 / weightb=1 / open_gop=0 / weightp=1 / keyint=250 / keyint_min=25 / scenecut=40 / intra_refresh=0 / rc_lookahead=30 / rc=2pass / mbtree=1 / bitrate=2800 / ratetol=1.0 / qcomp=0.60 / qpmin=0 / qpmax=69 / qpstep=4 / cplxblur=20.0 / qblur=0.5 / ip_ratio=1.40 / aq=1:1.00
Default : Yes
Forced : No
Audio #2
ID : 2
Format : AC-3
Format/Info : Audio Coding 3
Mode extension : CM (complete main)
Format settings, Endianness : Big
Codec ID : A_AC3
Duration : 1h 42mn
Bit rate mode : Constant
Bit rate : 192 Kbps
Channel(s) : 2 channels
Channel positions : Front: L R
Sampling rate : 48.0 KHz
Bit depth : 16 bits
Compression mode : Lossy
Stream size : 140 MiB (6%)
Default : Yes
Forced : No

Золотой глобус, 1975 год
Номинации (1):
- Самый многообещающий новичок среди женщин (Хелен Редди)
Релиз от:



Скачать Аэропорт.1975.Airport.1975.(Джек.Смайт).[1974.Боевик.триллер.драма.DVDRip].[AVC].[FilmoRay.VS.Sheikn].[MVO].torrent без регистрации
Золото ЗОЛОТАЯ РАЗДАЧА! СКАЧАННОЕ НЕ ЗАСЧИТЫВАЕТСЯ! Золото
Дата: Зарегистрирован   [ Тип: внутренний ] Как тут cкачать?
MAGNET ссылка
MAGNET ссылка


Скачать .torrent

22 KB

Статус: проверено DHT
Скачан: торрент - 5358 раз, раздача полностью - 20 раз
Размер: 2,13 GB
Оценка:  - (Голосов: 0)
Поблагодарили: 2
Поделиться ссылкой на эту раздачу с друзьями:
В контактеFacebookОдноклассникиTwitterLivejournalМой МирLiveinternet
 

 
Показать сообщения:    


Вы не можете начинать темы
Вы не можете отвечать на сообщения
Вы не можете редактировать свои сообщения
Вы не можете удалять свои сообщения
Вы не можете голосовать в опросах
Вы не можете прикреплять файлы к сообщениям
Вы можете скачивать файлы