Loading...
Error

Скачать Гранд Отель / Grand Hotel (Эдмунд Гулдинг / Edmund Goulding) [1932, драма, мелодрама, DVDRip] [DVO] (SomeWax) торрент без регистрации

 
Статистика раздачи
Размер:  1,45 GB   |    Скачан:  113 раз
Сидов:  1  [  0 KB/s  ]  
 
Автор Сообщение

leon030982

[] 

Гранд Отель / Grand Hotel

Страна: США
Жанр: драма, мелодрама
Год выпуска: 1932
Продолжительность: 01:52:37
Перевод:
Профессиональный (двухголосый закадровый) [SomeWax]
Cубтитры: нет
Режиссер: Эдмунд Гулдинг / Edmund Goulding
В ролях:
*Грета Гарбо — балерина Грушинская
*Джон Берримор — барон Феликс фон Гайгерн
*Джоан Кроуфорд — Мисс Флэмм
*Уоллес Бири — Прайсинг
*Лайонел Берримор — Отто Крингеляйн
*Льюис Стоун — доктор Оттерншлаг
*Фердинанд Готтшалк — Пименов
Описание: Обычный день роскошного Берлинского гранд-отеля, сотни служащих и гостей, люди встречаются, люди расходятся… Убийство и воровство, любовь и ненависть, азарт и жадность — все грехи мира представлены в этом замкнутом мире красоты и порока. Судьба всех сводит в один клубок...
Рейтинг:
imdb.com - 7.6/10 (8,458)
kinopoisk.ru - 7.598 (471)
Релиз от группы:
Качество видео: // спасибо olegsa //
Формат видео: AVI
Видео: 672x448 (3:2), 23.976 fps, XviD build 65 ~1639 kbps avg, 0.227 bit/pixel
Аудио: 48 kHz, AC3 Dolby Digital, 2/0 (L,R) ch, ~192 kbps - SomeWax

Код:

Общее
Полное имя                               : D:\Grand.otel.1932.DVDRip.RG.All.Films.avi
Формат                                   : AVI
Формат/Информация                        : Audio Video Interleave
Размер файла                             : 1,45 Гбайт
Продолжительность                        : 1 ч. 52 м.
Общий поток                              : 1841 Кбит/сек
Программа кодирования                    : VirtualDubModRus 1.5.10.2 (build 2542/release)
Библиотека кодирования                   : VirtualDubMod build 2542/release
Видео
Идентификатор                            : 0
Формат                                   : MPEG-4 Visual
Профиль формата                          : Advanced Simple@L5
Параметр BVOP формата                    : 1
Параметр QPel формата                    : Нет
Параметр GMC формата                     : Без точки перехода
Параметр матрицы формата                 : Выборочная
Идентификатор кодека                     : XVID
Идентификатор кодека/Подсказка           : XviD
Продолжительность                        : 1 ч. 52 м.
Битрейт                                  : 1639 Кбит/сек
Ширина                                   : 672 пикселя
Высота                                   : 448 пикселей
Соотношение сторон                       : 3:2
Частота кадров                           : 23,976 кадра/сек
Цветовое пространство                    : YUV
Субдискретизация насыщенности            : 4:2:0
Битовая глубина                          : 8 бит
Тип развёртки                            : Прогрессивная
Метод сжатия                             : С потерями
Бит/(Пиксели*Кадры)                      : 0.227
Размер потока                            : 1,29 Гбайт (89%)
Библиотека кодирования                   : XviD 65
Аудио
Идентификатор                            : 1
Формат                                   : AC-3
Формат/Информация                        : Audio Coding 3
Расширение режима                        : CM (complete main)
Параметр Endianness формата              : Big
Идентификатор кодека                     : 2000
Продолжительность                        : 1 ч. 52 м.
Вид битрейта                             : Постоянный
Битрейт                                  : 192 Кбит/сек
Каналы                                   : 2 канала
Расположение каналов                     : Front: L R
Частота                                  : 48,0 КГц
Битовая глубина                          : 16 бит
Метод сжатия                             : С потерями
Размер потока                            : 155 Мбайт (10%)
Выравнивание                             : Разделение по промежуткам
Продолжительность промежутка             : 42  мс. (1,00 видеокадр)
Время предзагрузки промежутка            : 500  мс.
Заголовок                                : 'DVO' «SomeWax»



Скачать Гранд.Отель.Grand.Hotel.(Эдмунд.Гулдинг.Edmund.Goulding).[1932.драма.мелодрама.DVDRip].[DVO].(SomeWax).torrent без регистрации
Золото ЗОЛОТАЯ РАЗДАЧА! СКАЧАННОЕ НЕ ЗАСЧИТЫВАЕТСЯ! Золото
Дата: Зарегистрирован   [ Тип: внутренний ] Как тут cкачать?
MAGNET ссылка
MAGNET ссылка


Скачать .torrent

15 KB

Статус: проверено DHT
Скачан: торрент - 113 раз, раздача полностью - 4 раз
Размер: 1,45 GB
Оценка:  5 (Голосов: 1)
Поблагодарили: 0
Поделиться ссылкой на эту раздачу с друзьями:
В контактеFacebookОдноклассникиTwitterLivejournalМой МирLiveinternet
 

 
Показать сообщения:    


Вы не можете начинать темы
Вы не можете отвечать на сообщения
Вы не можете редактировать свои сообщения
Вы не можете удалять свои сообщения
Вы не можете голосовать в опросах
Вы не можете прикреплять файлы к сообщениям
Вы можете скачивать файлы