Loading...
Error

Скачать Месть / Revenge (Полный 2-ой сезон) (Сэнфорд Букставер, Кеннет Финк, Мэтт Эрл Бисли) [2012 г., драма, WEB-DL] [720p] [MVO] (Fox Life) торрент без регистрации

 
Статистика раздачи
Размер:  30,87 GB   |    Скачан:  151 раз
Сидов:  1  [  0 KB/s  ]  
 
Автор Сообщение

leon030982

[] 


Месть / Revenge

«What goes around comes around.»
Год выпуска: 2012-2013
Страна: США
Жанр: драма, триллер
Продолжительность: ~00:42:00

Перевод: Профессиональный (многоголосый, закадровый) - [Fox Life]

Режиссер: Сэнфорд Букставер, Кеннет Финк, Мэтт Эрл Бисли
Автор идеи:: Майк Келли

В ролях: Эмили ВанКамп, Меделин Стоу, Габриэль Манн, Генри Черни, Ник Векслер, Джошуа Боуман, Коннор Паоло и др.

Описание: Богатство, красота и статус характеризуют людей в этом городе, но одна женщина готова уничтожить всех ради мести. Эмили Торн – новенькая в Хэмптоне. Она познакомилась с некоторыми влиятельными соседями, завела несколько друзей и, казалось бы, легко вписывается. Но есть что-то странное в том, что молодая девушка живет в богатом городе сама по себе. На самом деле, Эмили не совсем новичок в этом районе. Она уже жила здесь, пока не случилось что-то ужасное, разрушившее её семью и репутацию. Сейчас Эмили вернулась, чтобы восстановить справедливость самым лучшим для неё способом – местью.


Качество: WEB-DL 720р
Формат: MKV
Видео кодек: AVC
Аудио кодек: AC3
Видео: 1280×720 (1.78:1), 23.976 fps, 4137 kbps avg, 0,18 bit/pixel
Аудио #1: AC3, 48 kHz, Dolby Digital 2.0 @ 192 kbps
Аудио #2: AC3, 48 kHz, Dolby Digital 5.1 @ 384 kbps
|||| Sample
General
Unique ID : 208321265461722231741737293254995448461 (0x9CB93760C8614885BD4B97C2A01F928D)
Complete name : I:\Раздачи\Месть - 2 сезон (720p)\revenge.s02e01.web-dl.720.rus.eng.novafilm.mkv
Format : Matroska
Format version : Version 2
File size : 1.41 GiB
Duration : 43mn 17s
Overall bit rate : 4 652 Kbps
Encoded date : UTC 2012-10-17 20:23:47
Writing application : mkvmerge v5.8.0 ('No Sleep / Pillow') built on Sep 2 2012 15:37:04
Writing library : libebml v1.2.3 + libmatroska v1.3.0
Video
ID : 1
Format : AVC
Format/Info : Advanced Video Codec
Format profile : High@L3.1
Format settings, CABAC : No
Format settings, ReFrames : 2 frames
Codec ID : V_MPEG4/ISO/AVC
Duration : 43mn 17s
Bit rate : 3 983 Kbps
Width : 1 280 pixels
Height : 720 pixels
Display aspect ratio : 16:9
Frame rate : 23.976 fps
Color space : YUV
Chroma subsampling : 4:2:0
Bit depth : 8 bits
Scan type : Progressive
Bits/(Pixel*Frame) : 0.180
Stream size : 1.20 GiB (86%)
Language : English
Default : No
Forced : No
Color primaries : BT.709-5, BT.1361, IEC 61966-2-4, SMPTE RP177
Transfer characteristics : BT.709-5, BT.1361
Matrix coefficients : BT.709-5, BT.1361, IEC 61966-2-4 709, SMPTE RP177
Audio #1
ID : 2
Format : AC-3
Format/Info : Audio Coding 3
Mode extension : CM (complete main)
Codec ID : A_AC3
Duration : 43mn 17s
Bit rate mode : Constant
Bit rate : 192 Kbps
Channel(s) : 2 channels
Channel positions : Front: L R
Sampling rate : 48.0 KHz
Bit depth : 16 bits
Compression mode : Lossy
Stream size : 59.4 MiB (4%)
Language : Russian
Default : Yes
Forced : No
Audio #2
ID : 3
Format : AC-3
Format/Info : Audio Coding 3
Mode extension : CM (complete main)
Codec ID : A_AC3
Duration : 43mn 17s
Bit rate mode : Constant
Bit rate : 384 Kbps
Channel(s) : 6 channels
Channel positions : Front: L C R, Side: L R, LFE
Sampling rate : 48.0 KHz
Bit depth : 16 bits
Compression mode : Lossy
Stream size : 119 MiB (8%)
Language : English
Default : No
Forced : No
Раздача ведётся путём добавления новых серий; при каждом добавлении создаётся новый торрент. Чтобы начать докачку новой серии, пользователям необходимо сделать следующее:
(1) остановить скачивание,
(2) удалить старый торрент у себя из клиента (старые серии удалять не надо),
(3) скачать новый торрент и запустить его у себя в клиенте вместо старого, при этом указать клиенту путь в старую папку куда и должно происходить скачивание новых серий.
Ваш клиент при этом должен произвести хеширование (проверку) старой папки (если не производит сам - помогите ему сделать это), и будет докачивать только те серии которых у вас ещё нет. Старые серии при этом не удаляются, а продолжают раздаваться!
Eсли вы уже удалили старые серии, то предотвратить повторную закачку старых серий можно, отжав галочку в соответствующих местах при запуске нового торрента. По возможности, желательно не удалять старые серии как можно дольше чтобы релизёр не столько продолжал раздавать старые серии, а смог сконцентрироваться на новых.




Скачать Месть.Revenge.(Полный.2-ой.сезон).(Сэнфорд.Букставер.Кеннет.Финк.Мэтт.Эрл.Бисли).[2012.г.драма.WEB-DL].[720p].[MVO].(Fox.Life).torrent без регистрации
Золото ЗОЛОТАЯ РАЗДАЧА! СКАЧАННОЕ НЕ ЗАСЧИТЫВАЕТСЯ! Золото
Дата: Зарегистрирован   [ Тип: внутренний ] Как тут cкачать?
MAGNET ссылка
MAGNET ссылка


Скачать .torrent

80 KB

Статус: проверено DHT
Скачан: торрент - 151 раз, раздача полностью - 18 раз
Размер: 30,87 GB
Оценка:  5 (Голосов: 1)
Поблагодарили: 0
Поделиться ссылкой на эту раздачу с друзьями:
В контактеFacebookОдноклассникиTwitterLivejournalМой МирLiveinternet
 

 

leon030982

[] 

14-я серия az
 

leon030982

[] 

15-я серия az
 

leon030982

[] 

обновлено ay
 

leon030982

[] 

раздача обновлена az
 
Показать сообщения:    


Вы не можете начинать темы
Вы не можете отвечать на сообщения
Вы не можете редактировать свои сообщения
Вы не можете удалять свои сообщения
Вы не можете голосовать в опросах
Вы не можете прикреплять файлы к сообщениям
Вы можете скачивать файлы