Loading...
Error

Скачать Моя прекрасная леди / My Fair Lady (Джордж Кьюкор) [1964, мюзикл, драма, мелодрама, семейный, BDRip] [FilmoRay VS Sheikn] 5x[MVO] + 4x[AVO] торрент без регистрации

 
Статистика раздачи
Размер:  6,57 GB   |    Скачан:  108 раз

Полного источника не было: 20 минут

 
Автор Сообщение

Sheikn

[] 

Информация о фильме
Название: Моя прекрасная леди
Оригинальное название: My Fair Lady
Год выхода: 1964
Жанр: Мюзикл, драма, мелодрама, семейный
Режиссер: Джордж Кьюкор
В ролях: Одри Хепберн, Рекс Харрисон, Стэнли Холлоуэй, Уилфрид Хайд-Вайт, Глэдис Купер, Джереми Бретт, Теодор Бикел, Мона Уошборн, Изобел Элсом, Джек Холлэнд, Хелен Альбрехт, Джон Алдерсон, Мэри Александр, Фрэнк Бэйкер, Луис Бэттл, Уильям Бекли, Марджори Беннетт, Оскар Береги мл., Бетти Блайт, Диана Бурбон, Ирис Бристоль, Сью Бронсон, Эндрю Браун, Мэг Браун, Бадди Брайант, Уолтер Бурк, Беа Мари Буш, Колин Кэмпбелл, Дженни Карсон, Натали Кор, Том Каунд, Дженнифер Криер, Морис Дэллимор, Эллисон Дэниелл, Генри Дэниелл, Донна Дэй, Рой Дин, Томас Дик, Брендан Диллон, Энн Дор, Полин Дрэйк, Харви Б. Данн, Сэнди Эдмундсон, Джо Эванс, Рэймонд Фостер

О фильме: Знаменитый профессор Генри Хиггинс заключает пари со своим другом, что сможет обучить безграмотную замарашку, уличную цветочницу Элизу правильной речи и высокосветским манерам и выдать ее за настоящую леди. Искрометный юмор, забавные ситуации, Золушка на глазах у зрителей превращается в принцессу, а убежденный холостяк во влюбленного.



Страна: США / Warner Bros. Pictures
Продолжительность: 02:53:02
Перевод: Профессиональный, многоголосый (ДВД Магия, Фильм-Престиж, Премьер, ДТВ, НТВ) // Авторский, одноголосый (Юрий Живов, Григорий Либергал, Юрий Сербин, Николай Александрович - Мосфильм) /отдельно/
Дата релиза: 01.04.2013

Файл
Кодек: MPEG-4 AVC
Качество: BDRip
Видео: 720x304, 1908 Кбит/с
Звук: 01. Профессиональный, многоголосый (ДВД Магия) (АС3, 6 ch, 448 Кбит/с)
02. Профессиональный, многоголосый (Фильм-Престиж) (АС3, 6 ch, 448 Кбит/с)
03. Профессиональный, многоголосый (Премьер) (АС3, 2 ch, 192 Кбит/с)
04. Профессиональный, многоголосый (ДТВ) (АС3, 2 ch, 192 Кбит/с)
05. Профессиональный, многоголосый (НТВ) (АС3, 2 ch, 192 Кбит/с)
06. Авторский, одноголосый (Ю. Живов) (АС3, 6 ch, 448 Кбит/с) /отдельно/
07. Авторский, одноголосый (Г. Либергал) (АС3, 6 ch, 448 Кбит/с) /отдельно/
08. Авторский, одноголосый (Юрий Сербин) (АС3, 6 ch, 448 Кбит/с) /отдельно/
09. Авторский, одноголосый (Н.Александрович - Мосфильм) (АС3, 2 ch, 192 Кбит/с) /отдельно/
10. Оригинал (Английский) (АС3, 6 ch, 448 Кбит/с) /отдельно/

Семпл
Unique ID : 216719506547582189832839635389571151799 (0xA30AA8A1D3AAED7E80811CDDCF5C37B7)
Complete name : Moja.prekrasnaja.ledi.1964.x264.BDRip.Filmoray.SheiknMy Fair Lady 1964.XviD.BDRip.mkv
Format : Matroska
Format version : Version 2
File size : 4.17 GiB
Duration : 2h 53mn
Overall bit rate : 3 449 Kbps
Encoded date : UTC 2013-03-31 09:20:19
Writing application : mkvmerge v4.0.0 ('The Stars were mine') сборка от Jun 6 2010 16:18:42
Writing library : libebml v1.0.0 + libmatroska v1.0.0
Video #1
ID : 1
Format : MPEG-4 Visual
Format profile : Simple@L3
Format settings, BVOP : No
Format settings, QPel : No
Format settings, GMC : No warppoints
Format settings, Matrix : Default (H.263)
Codec ID : V_MS/VFW/FOURCC / XVID
Codec ID/Hint : XviD
Duration : 2h 53mn
Bit rate : 1 908 Kbps
Width : 720 pixels
Height : 304 pixels
Display aspect ratio : 2.35:1
Frame rate mode : Constant
Frame rate : 23.976 fps
Color space : YUV
Chroma subsampling : 4:2:0
Bit depth : 8 bits
Scan type : Progressive
Compression mode : Lossy
Bits/(Pixel*Frame) : 0.364
Stream size : 2.31 GiB (55%)
Writing library : XviD 1.1.2 (UTC 2006-11-01)
Default : Yes
Forced : No
Audio #2
ID : 2
Format : AC-3
Format/Info : Audio Coding 3
Mode extension : CM (complete main)
Format settings, Endianness : Big
Codec ID : A_AC3
Duration : 2h 53mn
Bit rate mode : Constant
Bit rate : 448 Kbps
Channel(s) : 6 channels
Channel positions : Front: L C R, Side: L R, LFE
Sampling rate : 48.0 KHz
Bit depth : 16 bits
Compression mode : Lossy
Stream size : 554 MiB (13%)
Title : Профессиональный, многоголосый (ДВД Магия)
Language : Russian
Default : Yes
Forced : No
Audio #3
ID : 3
Format : AC-3
Format/Info : Audio Coding 3
Mode extension : CM (complete main)
Format settings, Endianness : Big
Codec ID : A_AC3
Duration : 2h 53mn
Bit rate mode : Constant
Bit rate : 448 Kbps
Channel(s) : 6 channels
Channel positions : Front: L C R, Side: L R, LFE
Sampling rate : 48.0 KHz
Bit depth : 16 bits
Compression mode : Lossy
Stream size : 554 MiB (13%)
Title : Профессиональныйб многоголосый (Фильм-Престиж)
Language : Russian
Default : No
Forced : No
Audio #4
ID : 4
Format : AC-3
Format/Info : Audio Coding 3
Mode extension : CM (complete main)
Format settings, Endianness : Big
Codec ID : A_AC3
Duration : 2h 53mn
Bit rate mode : Constant
Bit rate : 192 Kbps
Channel(s) : 2 channels
Channel positions : Front: L R
Sampling rate : 48.0 KHz
Bit depth : 16 bits
Compression mode : Lossy
Stream size : 238 MiB (6%)
Title : Профессиональный, многоголосый (Премьер)
Language : Russian
Default : No
Forced : No
Audio #5
ID : 5
Format : AC-3
Format/Info : Audio Coding 3
Mode extension : CM (complete main)
Format settings, Endianness : Big
Codec ID : A_AC3
Duration : 2h 53mn
Bit rate mode : Constant
Bit rate : 192 Kbps
Channel(s) : 2 channels
Channel positions : Front: L R
Sampling rate : 48.0 KHz
Bit depth : 16 bits
Compression mode : Lossy
Stream size : 238 MiB (6%)
Title : Профессиональный, многоголосый (ДТВ)
Language : Russian
Default : No
Forced : No
Audio #6
ID : 6
Format : AC-3
Format/Info : Audio Coding 3
Mode extension : CM (complete main)
Format settings, Endianness : Big
Codec ID : A_AC3
Duration : 2h 53mn
Bit rate mode : Constant
Bit rate : 192 Kbps
Channel(s) : 2 channels
Channel positions : Front: L R
Sampling rate : 48.0 KHz
Bit depth : 16 bits
Compression mode : Lossy
Stream size : 238 MiB (6%)
Title : Профессиональный, многоголосый (НТВ)
Language : Russian
Default : No
Forced : No
* Бродвейская премьера мюзикла состоялась 15 марта 1956 года. Постановка, в которой главную роль сыграла Джули Эндрюс, сразу же стала пользоваться бешеной популярностью, билеты были распроданы на полгода вперед, «Моя прекрасная леди» была сыграна на Бродвее 2717 раз.
* Когда было решено, что мюзикл «Моя прекрасная леди» станет фильмом, его поклонники были разочарованы, все надеялись увидеть в роли Элизы Джули Эндрюс (хотел этого и Рекс Харрисон), а ее в итоге сыграла Одри Хепберн. А вот Рексу Харрисону, который играл Хиггинса на Бродвее, замены не нашлось, и экцентричный профессор успешно перебрался с театральных подмостков на большой экран, и получил впоследствие Оскар.
* Специально для роли Одри Хепберн усиленно готовилась и брала уроки вокала, но во всех песнях ее в итоге продублировала Марни Никсон.
* Первым делом роль Альфреда Дулиттла была предложена Джеймсу Кэгни. Когда он отказался от нее в последнюю минуту, роль отошла к Стэнли Холлоуэю, который играл Альфреда на Бродвее.
* До того, как было решено, что Рекс Харрисон сыграет профессора Хиггинса и в фильме, на эту роль рассматривались Кэри Грант, Питер О`Тул, Ноэл Коуард, Майкл Редгрейв и Джордж Сандерс.
* В своей автобиографии «Tis Herself» 2004 года Морин О`Хара написала, что продюсер Джек Л. Уорнер просил ее спеть за Одри Хепберн в фильме.
* Джереми Бретт, которому во время съемок исполнилось 30 лет, был очень удивлен, когда узнал, что в музыкальных композициях его продублировал 42-летний американец Билли Ширли.
* Джек Л. Уорнер заплатила за права $ 5,5 млн. в феврале 1962 года. Тогда эта покупка стала рекордной, никто ранее не приобретал оригинальную идею постановки за столько крупную сумму. Лишь в 1978 году Columbia заплатила $ 9,5 млн. за права на экранизацию «Энни» (1982).
* Глэдис Купер, который играет мать профессора Хиггинса, ранее играла эту же роль в телевизионной постановке «Пигмалиона» 1963 года, «Hallmark Hall of Fame: Pygmalion (#12,3)".
* Название фильма не появляется ни в каком-либо диалоге, ни в песне.
* Когда Кэри Гранта спросили, почему он отказался от роли Генри Хиггинса, Грант ответил, что его манера говорить гораздо ближе Элизе Дулиттл.
* Действие фильма происходит в 1912 году.
* 27A Уимпол-стрит в Лондоне адрес профессора Хиггинса, такой улицы на самом деле не существует, есть 27 Уимпол-стрит.
* Ширли Джонс была одной из актрис, которой Джек Л. Уорнер планировал предложить роль, если бы Одри Хепберн отказалась. Кандидатура Джули Эндрюс была отвергнута, так как продюсеры считали ее недостаточно известной. Элизу также очень хотела сыграть Элизабет Тейлор.
* Одри Хепберн позднее призналась, что никогда бы не приняла роли Элизы Дулиттл, если бы знала, что Джек Л. Уорнер захочет продублировать все ее песни. Кроме того, она однажды сказала Джули Эндрюс лично, что та должна была сыграть Элизу вместо нее. Во время своего выступления в Университете Калифорнии в Лос-Анджелесе в 2008 году Джули Эндрюс подтвердила этот факт.
* Рекс Харрисон был очень разочарован, когда узнал, что роль Элизы досталась Одри Хепберн, так как он хотел, чтобы ее сыграла его партнерша по бродвейской постановке Джули Эндрюс. Но на съемках Харрисон и Хепберн подружились, и когда актер получал Оскар за «Мою прекрасную леди» в 1964 году, он посвятил его своим «двум прекрасным леди», Одри Хепберн и Джули Эндрюс, которые обе сыграли Элизу Дулиттл с ним.
* В мюзикле Элизе 21 год, а Фредди 20, Одри Хепберн на момент съемок было 34 года (этот факт так же возмущал поклонников бродвейской постановки), а Джереми Бретту 30 лет.
* Фильм должен был называться «Леди Лиза».

Награды:

Британская академия, 1966 год
Победитель (1):
- Лучший фильм
Номинации (1):
- Лучший британский актер (Рекс Харрисон)

Оскар, 1965 год
Победитель (8):
- Лучший фильм
- Лучшая мужская роль (Рекс Харрисон)
- Лучший режиссер (Джордж Кьюкор)
- Лучшая работа оператора (цветные фильмы)
- Лучшая работа художника (цветные фильмы)
- Лучшая работа художника по костюмам (цветные фильмы)
- Лучший звук
- Лучшая музыкальная адаптация
Номинации (4):
- Лучшая мужская роль второго плана (Стэнли Холлоуэй)
- Лучшая женская роль второго плана (Глэдис Купер)
- Лучший адаптированный сценарий
- Лучший монтаж

Золотой глобус, 1965 год
Победитель (3):
- Лучшая мужская роль (комедия или мюзикл) (Рекс Харрисон)
- Лучший фильм (комедия или мюзикл)
- Лучший режиссер (Джордж Кьюкор)
Номинации (2):
- Лучшая женская роль (комедия или мюзикл) (Одри Хепберн)
- Лучшая мужская роль второго плана (Стэнли Холлоуэй)
Релиз от:



Скачать Моя.прекрасная.леди.My.Fair.Lady.(Джордж.Кьюкор).[1964.мюзикл.драма.мелодрама.семейный.BDRip].[FilmoRay.VS.Sheikn].5x[MVO].+.4x[AVO].torrent без регистрации
Золото ЗОЛОТАЯ РАЗДАЧА! СКАЧАННОЕ НЕ ЗАСЧИТЫВАЕТСЯ! Золото
Дата: Зарегистрирован   [ Тип: внутренний ] Как тут cкачать?
MAGNET ссылка
MAGNET ссылка


Скачать .torrent

66 KB

Статус: проверено DHT
Скачан: торрент - 108 раз, раздача полностью - 180 раз
Размер: 6,57 GB
Оценка:  - (Голосов: 0)
Поблагодарили: 1
Поделиться ссылкой на эту раздачу с друзьями:
В контактеFacebookОдноклассникиTwitterLivejournalМой МирLiveinternet
 

 
Показать сообщения:    


Вы не можете начинать темы
Вы не можете отвечать на сообщения
Вы не можете редактировать свои сообщения
Вы не можете удалять свои сообщения
Вы не можете голосовать в опросах
Вы не можете прикреплять файлы к сообщениям
Вы можете скачивать файлы