Loading...
Error

Скачать Сделка / The Deal (Стивен Шатер) [2008, комедия, BDRip-AVC] [MVO]+[Оригинал]+[Sub] торрент без регистрации

 
Статистика раздачи
Размер:  3,07 GB   |    Скачан:  112 раз
Сидов:  1  [  0 KB/s  ]  
 
Автор Сообщение

Marsianka

[] 

Информация о фильме
Название: Сделка
Оригинальное название: The Deal
Год выхода: 2008
Жанр: комедия
Режиссер: Стивен Шатер
В ролях:
Уильям Х. Мэйси, Мег Райан, Кул Джей, Эллиот Гулд, Джейсон Риттер, Фиона Глэскотт, Шэрон Раджиньяно, Джон Карсон, Дэвид Хант, Джереми Кратчли, Наташа Риис Дейвис, Эйден Литгоу, Кейт Блумберг, Тере Моррис, Шон Хиггс, Эдриан Голли, Нина Шеперд, Джинн Вильгельм, Тодд Викс, Джордж Джакос, Нил МакКарти, Хосе Домингос, Кеннет Фок, Бретт Гранстафф, Фред Абрахамс

О фильме:
Продюсер - неудачник Чарли Бёрнс уже отчаялся вернуться в кинобизнес. Однажды он показал безнадежный сценарий своего племянника-дебютанта на студии. Удивительно, но кинобоссы отвалили круглую сумму на постановку обреченного на провал фильма. Однако Чарли снова круто «повезло»: исполнителя главной роли похитили, и студия разрывает контракт. Горе-продюсер и администратор студии ввяжутся в невероятные приключения и грандиозные авантюры, лишь бы закончить съемки. Вдвоем они свернут горы и повернут удачу к себе лицом.



Страна: США, Канада
Студия: Dog Pond Productions, Muse Entertainment Enterprises, Sydnyk Works, Union Square Entertainment
Продолжительность: 01:39:56
Перевод: Профессиональный (многоголосый закадровый) + оригинал

Файл
Кодек: MPEG-4 AVC
Качество: BDRip-AVC
Видео: 3500 Кбит/с, 1024х576, 23.976 кадр/с
Звук:
Русский (АС3, 6 ch, 448 Кбит/с) / Профессиональный (многоголосый закадровый)
Английский (АС3, 6 ch, 448 Кбит/с)
Субтитры: Английские

Семпл
General
Unique ID : 230228087671268920993416915203424986533 (0xAD34511A5CD06288BB17DC6BE77F25A5)
Complete name : D:2Films DSdelka.2008.x264.BDRip.AVC.MediaClub.mkv
Format : Matroska
Format version : Version 2
File size : 3.07 GiB
Duration : 1h 39mn
Overall bit rate : 4 392 Kbps
Movie name : = MediaClub = rip by Lefevr
Encoded date : UTC 2013-03-31 11:58:11
Writing application : mkvmerge v5.4.0 ('Piper') built on Mar 10 2012 13:34:39
Writing library : libebml v1.2.3 + libmatroska v1.3.0

Video
ID : 1
Format : AVC
Format/Info : Advanced Video Codec
Format profile : High@L4.1
Format settings, CABAC : Yes
Format settings, ReFrames : 9 frames
Codec ID : V_MPEG4/ISO/AVC
Duration : 1h 39mn
Bit rate : 3 500 Kbps
Width : 1 024 pixels
Height : 576 pixels
Display aspect ratio : 16:9
Frame rate : 23.976 fps
Color space : YUV
Chroma subsampling : 4:2:0
Bit depth : 8 bits
Scan type : Progressive
Bits/(Pixel*Frame) : 0.247
Stream size : 2.38 GiB (78%)
Title : Sdelka.2008.x264.BDRip.AVC.MediaClub
Writing library : x264 core 125 r2208 d9d2288
Encoding settings : cabac=1 / ref=9 / deblock=1:-3:-3 / analyse=0x3:0x133 / me=umh / subme=11 / psy=1 / psy_rd=1.00:0.05 / mixed_ref=1 / me_range=32 / chroma_me=1 / trellis=2 / 8x8dct=1 / cqm=0 / deadzone=21,11 / fast_pskip=0 / chroma_qp_offset=-3 / threads=6 / lookahead_threads=1 / sliced_threads=0 / nr=0 / decimate=0 / interlaced=0 / bluray_compat=0 / constrained_intra=0 / bframes=7 / b_pyramid=2 / b_adapt=2 / b_bias=0 / direct=3 / weightb=1 / open_gop=0 / weightp=2 / keyint=240 / keyint_min=23 / scenecut=40 / intra_refresh=0 / rc=2pass / mbtree=0 / bitrate=3500 / ratetol=1.0 / qcomp=0.60 / qpmin=0 / qpmax=69 / qpstep=4 / cplxblur=20.0 / qblur=0.5 / ip_ratio=1.40 / pb_ratio=1.30 / aq=1:0.80
Language : English
Default : Yes
Forced : No

Audio #1
ID : 2
Format : AC-3
Format/Info : Audio Coding 3
Mode extension : CM (complete main)
Codec ID : A_AC3
Duration : 1h 39mn
Bit rate mode : Constant
Bit rate : 448 Kbps
Channel(s) : 6 channels
Channel positions : Front: L C R, Side: L R, LFE
Sampling rate : 48.0 KHz
Bit depth : 16 bits
Compression mode : Lossy
Stream size : 320 MiB (10%)
Title : TRACK_01_MVO_RUS
Language : Russian
Default : Yes
Forced : No

Audio #2
ID : 3
Format : AC-3
Format/Info : Audio Coding 3
Mode extension : CM (complete main)
Codec ID : A_AC3
Duration : 1h 39mn
Bit rate mode : Constant
Bit rate : 448 Kbps
Channel(s) : 6 channels
Channel positions : Front: L C R, Side: L R, LFE
Sampling rate : 48.0 KHz
Bit depth : 16 bits
Compression mode : Lossy
Stream size : 320 MiB (10%)
Title : TRACK_02_ORIGINAL_ENG
Language : English
Default : No
Forced : No

Text
ID : 4
Format : UTF-8
Codec ID : S_TEXT/UTF8
Codec ID/Info : UTF-8 Plain Text
Title : TEXT_01_SUB_ENG
Language : English
Default : No
Forced : No

Menu
00:00:00.000 : en:Chapter 01
00:04:32.313 : en:Chapter 02
00:09:26.482 : en:Chapter 03
00:18:08.628 : en:Chapter 04
00:25:17.014 : en:Chapter 05
00:34:11.882 : en:Chapter 06
00:39:14.351 : en:Chapter 07
00:44:35.422 : en:Chapter 08
00:52:10.085 : en:Chapter 09
01:01:23.179 : en:Chapter 10
01:08:51.544 : en:Chapter 11
01:16:16.530 : en:Chapter 12
01:28:33.349 : en:Chapter 13
01:34:16.649 : en:Chapter 14
Релиз от:

За исходник спасибо: DaRkY by HDClub.
Автор рипа: Lefevr.



Скачать Сделка.The.Deal.(Стивен.Шатер).[2008.комедия.BDRip-AVC].[MVO]+[Оригинал]+[Sub].torrent без регистрации
Золото ЗОЛОТАЯ РАЗДАЧА! СКАЧАННОЕ НЕ ЗАСЧИТЫВАЕТСЯ! Золото
Дата: Зарегистрирован   [ Тип: внутренний ] Как тут cкачать?
MAGNET ссылка
MAGNET ссылка


Скачать .torrent

16 KB

Статус: проверено DHT
Скачан: торрент - 112 раз, раздача полностью - 14 раз
Размер: 3,07 GB
Оценка:  - (Голосов: 0)
Поблагодарили: 0
Поделиться ссылкой на эту раздачу с друзьями:
В контактеFacebookОдноклассникиTwitterLivejournalМой МирLiveinternet
 

 
Показать сообщения:    


Вы не можете начинать темы
Вы не можете отвечать на сообщения
Вы не можете редактировать свои сообщения
Вы не можете удалять свои сообщения
Вы не можете голосовать в опросах
Вы не можете прикреплять файлы к сообщениям
Вы можете скачивать файлы