Loading...
Error

Скачать Библия / The Bible (сезон 01) (Криспин Рис, Тони Митчелл, Кристофер Спенсер) [2013, драма, BDRip] [1080p] [MVO (BaibaKo)] торрент без регистрации

 
Статистика раздачи
Размер:  35,55 GB   |    Скачан:  4298 раз

Полного источника не было: 30 минут

 
Автор Сообщение

МихаНЕзатор

[] 

Название: Библия
Оригинальное название: The Bible
Год выпуска: 2013
Жанр: Драма
Режиссер: Криспин Рис, Тони Митчелл, Кристофер Спенсер
В ролях: Диого Моргадо, Дауд Шах, Пол Брайтвелл, Рома Дауни, Грег Хикс, Себастьян Кнапп, Эмбер Роуз Рева, Адриан Шиллер, Эндрю Брук, Луиз Деламер

Описание: Самая масштабная экранизация библейских сюжетов, как утверждают авторы, снята в духе современных исторических сериалов c добавлением к живым сценам - компьютерной графики. Истории о Ноевом ковчеге, исходе из Египта под предводительством Моисея, рождении, смерти и воскресении Иисуса. Сериал состоит из 10 ключевых повествований. Начиная от книги Бытие и заканчивая книгой Откровение. Воссоздать и снять истории Ветхого и Нового заветов решился 43-летний британский продюсер Марк Барнетт с супругой. Съемки стоимостью в 22 миллиона долларов прошли на Ближнем Востоке и собрали актеров со всего мира (Самсон из африканской диаспоры, Давид из Ирландии, Иисус из Португалии, и т.д.). В качестве консультантов были привлечены десятки пасторов и ученых.

Страна: США
Продолжительность: 03 x ~ 00:45:00
Перевод: Профессиональный (многоголосый, закадровый) - Baibako
Субтитры: Нет

Перевод: Янина Галицкая
Озвучка: Лира Грим, Ольга Мотрич, Сергей Корчак и Виталий Ткаченко
Монтаж: Павел Дежин


Качество: BDRip 1080p
Формат: MKV
Видео: MPEG-4 AVC, ~ 8150 Кбит/с, 1920x1080
Аудио rus: АС3, 6 ch, 384 Кбит/с
Аудио eng: DTS, 6 ch, 1510 Кбит/с

Релиз от:

17.07.2013 г. торент обновлён, добавлена 9-10 серия, отсутствует 2-я серия !

01. В Начале / In the Beginning
02. Исход / Exodus
03. Земля Обетованная / Homeland
04. Царство / Kingdom
05. Survival
06. Hope
07. Mission
08. Betrayal
09. Passion
10. Courage
General
Unique ID : 243762301249173604471678724054715980433 (0xB762E959F47315D7AE0B5F857557DA91)
Complete name : C:NewOutThe.Bible.s01e03.HD1080p.BluRay.Rus.Eng.BaibaKo.tv.mkv
Format : Matroska
File size : 3.17 GiB
Duration : 44mn 14s
Overall bit rate : 10.3 Mbps
Movie name : BaibaKo.tv presents - Библия 1x03 Земля Обетованная
Encoded date : UTC 2010-02-22 21:41:31
Writing application : mkvmerge v5.9.0 ('On The Loose') built on Dec 9 2012 15:37:01
Writing library : libebml v1.3.0 + libmatroska v1.4.0

Video
ID : 1
Format : AVC
Format/Info : Advanced Video Codec
Format profile : High@L4.1
Format settings, CABAC : Yes
Format settings, ReFrames : 4 frames
Codec ID : V_MPEG4/ISO/AVC
Duration : 44mn 14s
Bit rate : 8 153 Kbps
Width : 1 920 pixels
Height : 1 080 pixels
Display aspect ratio : 16:9
Frame rate : 23.976 fps
Color space : YUV
Chroma subsampling : 4:2:0
Bit depth : 8 bits
Scan type : Progressive
Bits/(Pixel*Frame) : 0.164
Stream size : 2.52 GiB (80%)
Language : English

Audio #1
ID : 2
Format : AC-3
Format/Info : Audio Coding 3
Mode extension : CM (complete main)
Codec ID : A_AC3
Duration : 44mn 14s
Bit rate mode : Constant
Bit rate : 384 Kbps
Channel(s) : 6 channels
Channel positions : Front: L C R, Side: L R, LFE
Sampling rate : 48.0 KHz
Bit depth : 16 bits
Compression mode : Lossy
Stream size : 122 MiB (4%)
Title : Rus BaibaKo.tv DD5.1
Language : Russian

Audio #2
ID : 3
Format : DTS
Format/Info : Digital Theater Systems
Codec ID : A_DTS
Duration : 44mn 14s
Bit rate mode : Constant
Bit rate : 1 510 Kbps
Channel(s) : 6 channels
Channel positions : Front: L C R, Side: L R, LFE
Sampling rate : 48.0 KHz
Bit depth : 24 bits
Compression mode : Lossy
Delay relative to video : 9ms
Stream size : 478 MiB (15%)
Title : Eng DTS 5.1
Language : English

Menu
00:00:00.000 : en:00:00:00.000
00:02:38.866 : en:00:04:53.960
00:06:42.985 : en:00:08:58.079
00:10:35.175 : en:00:12:50.269
00:12:31.125 : en:00:14:46.219
00:15:47.863 : en:00:18:02.957
00:20:14.963 : en:00:22:30.057
00:26:36.761 : en:00:28:51.855
00:31:32.557 : en:00:33:47.651
00:37:41.926 : en:00:39:57.020
00:40:26.674 : en:00:42:41.768
00:42:21.747 : en:00:44:36.841



Скачать Библия.The.Bible.(сезон.01).(Криспин.Рис.Тони.Митчелл.Кристофер.Спенсер).[2013.драма.BDRip].[1080p].[MVO.(BaibaKo)].torrent без регистрации
Золото ЗОЛОТАЯ РАЗДАЧА! СКАЧАННОЕ НЕ ЗАСЧИТЫВАЕТСЯ! Золото
Дата: Зарегистрирован   [ Тип: внутренний ] Как тут cкачать?
MAGNET ссылка
MAGNET ссылка


Скачать .torrent

90 KB

Статус: проверено DHT
Скачан: торрент - 4298 раз, раздача полностью - 3 раз
Размер: 35,55 GB
Оценка:  - (Голосов: 0)
Поблагодарили: 2
Поделиться ссылкой на эту раздачу с друзьями:
В контактеFacebookОдноклассникиTwitterLivejournalМой МирLiveinternet
 

 

МихаНЕзатор

[] 

Раздача обновлена.
 
Показать сообщения:    


Вы не можете начинать темы
Вы не можете отвечать на сообщения
Вы не можете редактировать свои сообщения
Вы не можете удалять свои сообщения
Вы не можете голосовать в опросах
Вы не можете прикреплять файлы к сообщениям
Вы можете скачивать файлы