Loading...
Error

Скачать Придорожное заведение / Red Rock West (Джон Дал / John Dahl) [1993, Детектив, Триллер, Криминал, WEB-DLRip] 2x[MVO] + [AVO] торрент без регистрации

 
Статистика раздачи
Размер:  1,59 GB   |    Скачан:  105 раз
Сидов:  1  [  0 KB/s  ]  
 
Автор Сообщение

leon030982

[] 

Придорожное заведение / Red Rock West


Год выхода: 1993
Жанр: Детектив, Триллер, Криминал
Страна: США
Продолжительность: 01:38:07
Перевод 1: Профессиональный (многоголосый закадровый) |"Пифагор" 2005, DVD R5 "Universal Pictures Rus"|
Перевод 2: Авторский (одноголосый закадровый) |Живов|
Перевод 3: Профессиональный (многоголосый закадровый) |"Варус Видео"|- отдельно

Режиссер: Джон Дал / John Dahl

В ролях: Николас Кейдж, Деннис Хоппер, Дж.Т. Уолш, Лара Флинн Бойл, Тимоти Кархарт, Дэн Шор, Дуайт Йоакам, Крэйг Рей, Вэнс Джонсон, Роберт Эпел, Тед Паркс, Майкл Рууд, Барбара Гловер

О фильме: Майкл бывший морской пехотинец. В его карманах пусто, а единственный шанс найти работу заехать в придорожный бар Red rock west. В это самое утро местный шериф Уэйн, на самом деле беглый преступник, укравший вместе с женой Сьюзан полмиллиона долларов и разыскиваемый ФБР, поджидает прибытия наемного убийцы из Техаса, нанятого для устранения жены.
Увидев Техасские номера машины Майкла, Уэйн решает, что дождался киллера и вручает Майклу $ 5000 аванса за предстоящую работу. Майкл устремляется к Сьюзан, чтобы предупредить ее и скрыться с наличными. Но к его удивлению Сьюзан удваивает сумму, чтобы он убил Уэйна. Майкл соглашается, но чувствует, что пора смываться. А тем временем к городку подъезжает настоящий наемный убийца Лайн


Качество: WEB-DLRip
Кодек: Xvid
Видео: 720x400, 23.976 fps, 1734 Kbps
Звук:
Аудио 1: AC3, 2 ch, 192.00 kbps[Многоголосый "Пифагор"]
Аудио 2: AC3, 2 ch, 192.00 kbps[Авторский (одноголосый закадровый) |Живов|]
Аудио 3: AC3, 2 ch, 192.00 kbps[Многоголосый |"Варус Видео"|- отдельно]
General
Complete name : Pridorojnoe ZavedeniePridorojnoe Zavedenie 1993.WEB-DLRip.avi
Format : AVI
Format/Info : Audio Video Interleave
File size : 1.46 GiB
Duration : 1h 38mn
Overall bit rate : 2 132 Kbps
Writing application : VirtualDubMod 1.5.10.2 (build 2542/release)
Writing library : VirtualDubMod build 2542/release

Video
ID : 0
Format : MPEG-4 Visual
Format profile : Advanced Simple@L5
Format settings, BVOP : 1
Format settings, QPel : No
Format settings, GMC : No warppoints
Format settings, Matrix : Custom
Codec ID : XVID
Codec ID/Hint : XviD
Duration : 1h 38mn
Bit rate : 1 734 Kbps
Width : 720 pixels
Height : 400 pixels
Display aspect ratio : 16:9
Frame rate : 23.976 fps
Color space : YUV
Chroma subsampling : 4:2:0
Bit depth : 8 bits
Scan type : Progressive
Compression mode : Lossy
Bits/(Pixel*Frame) : 0.251
Stream size : 1.19 GiB (81%)
Writing library : XviD 65

Audio #1
ID : 1
Format : AC-3
Format/Info : Audio Coding 3
Mode extension : CM (complete main)
Format settings, Endianness : Big
Codec ID : 2000
Duration : 1h 38mn
Bit rate mode : Constant
Bit rate : 192 Kbps
Channel(s) : 2 channels
Channel positions : Front: L R
Sampling rate : 48.0 KHz
Bit depth : 16 bits
Compression mode : Lossy
Stream size : 135 MiB (9%)
Alignment : Split accross interleaves
Interleave, duration : 42 ms (1.00 video frame)
Interleave, preload duration : 500 ms

Audio #2
ID : 2
Format : AC-3
Format/Info : Audio Coding 3
Mode extension : CM (complete main)
Format settings, Endianness : Big
Codec ID : 2000
Duration : 1h 38mn
Bit rate mode : Constant
Bit rate : 192 Kbps
Channel(s) : 2 channels
Channel positions : Front: L R
Sampling rate : 48.0 KHz
Bit depth : 16 bits
Compression mode : Lossy
Stream size : 135 MiB (9%)
Alignment : Split accross interleaves
Interleave, duration : 42 ms (1.00 video frame)
Interleave, preload duration : 500 ms


Релиз от: Leon-masl



Скачать Придорожное.заведение.Red.Rock.West.(Джон.Дал.John.Dahl).[1993.Детектив.Триллер.Криминал.WEB-DLRip].2x[MVO].+.[AVO].torrent без регистрации
Золото ЗОЛОТАЯ РАЗДАЧА! СКАЧАННОЕ НЕ ЗАСЧИТЫВАЕТСЯ! Золото
Дата: Зарегистрирован   [ Тип: внутренний ] Как тут cкачать?
MAGNET ссылка
MAGNET ссылка


Скачать .torrent

17 KB

Статус: проверено DHT
Скачан: торрент - 105 раз, раздача полностью - 14 раз
Размер: 1,59 GB
Оценка:  5 (Голосов: 1)
Поблагодарили: 1
Поделиться ссылкой на эту раздачу с друзьями:
В контактеFacebookОдноклассникиTwitterLivejournalМой МирLiveinternet
 

 
Показать сообщения:    


Вы не можете начинать темы
Вы не можете отвечать на сообщения
Вы не можете редактировать свои сообщения
Вы не можете удалять свои сообщения
Вы не можете голосовать в опросах
Вы не можете прикреплять файлы к сообщениям
Вы можете скачивать файлы