Loading...
Error

Скачать 10 000 лет до н.э. / 10,000 B.C. (Роланд Эммерих) [2008, приключения, драма, фэнтези, BDRip-AVC] [Dub]+[MVO]+[AVO]+[Sub] торрент без регистрации

 
Статистика раздачи
Размер:  3,06 GB   |    Скачан:  108 раз

Полного источника не было: 22 минуты

 
Автор Сообщение

Marsianka

[] 

Информация о фильме
Название: 10 000 лет до н.э.
Оригинальное название: 10,000 B.C.
Год выхода: 2008
Жанр: приключения, драма, фэнтези
Режиссер: Роланд Эммерих
В ролях: Стивен Стрейт, Камилла Белль, Клифф Кёртис, Джоэль Вирджил Вирсет, Аффиф Бен Бадра, Мо Зинал, Натаниэль Баринг, Мона Хэммонд, Марко Хэнлиэн, Рис Ричи, Джоэль Фрай, Омар Шариф, Кристиан Бизли, Джуниор Олифант, Луиз Ту'у, Джейкоб Рентон, Грэйсон Хант Арвин, Фарук Валли-Омар, Бубакар Бадэйн, Хосе Ваз, Чарльз Балойи, Тим Барлоу, Гэбриел Малема, Марк Симмонс, Ханна Уэстбёри, Антонио Фишер, Стивен Африканер, Антонио Капрари, Мэттью Навин, Нимия Роджерс, Колби Пистак, Бен Харт, Бен Койл-Ларнер, Джошуа Питерс, Хеберт Сомаб, Садраг Накале, Михаил Коэн

О фильме:
В далеком горном племени молодой охотник Д'Лех нашел свою любовь - красотку Эволет. Но когда загадочное воинственное племя напало на деревню и похитило Эволет, Д'Леху ничего не оставалось, как возглавить небольшую группу охотников, чтобы проследовать за этими властелинами войны даже на самый край света, дабы спасти любимую. Ведомому судьбой отряду неумелых воинов предстоит сразиться с саблезубыми тиграми и доисторическими хищниками и в конце героического путешествия найти Потерянную Цивилизацию. Судьба их целиком находится во власти империи, неподдающейся воображению, той, где великие пирамиды простираются до небес. И там они примут бой против могущественного бога, жестко поработившего их народ.



Страна: США, ЮАР, Centropolis Entertainment, Legendary Pictures, Mark Gordon Productions, The Mark Gordon Company, Warner Bros. Pictures
Продолжительность: 01:48:55
Перевод: Дублированный, профессиональный многоголосый, авторский одноголосый
Субтитры: Русские, английские
Дата релиза: 02.04.2013

Файл
Кодек: H.264
Качество: BDRip (AVC) (Blu-Ray Remux (1080p))
Видео: MPEG-4 AVC, 2299 Кбит/с, 1024x426
Аудио 1: Русский (AC3, 6 ch, 448 Кбит/с) - Дублированный (Blu-Ray)
Аудио 2: Русский (AC3, 6 ch, 448 Кбит/с) - Профессиональный многоголосый (С.Р.И.)
Аудио 3: Русский (AC3, 6 ch, 384 Кбит/с) - Авторский одноголосый (Немахов)
Аудио 4: Английский (AC3, 6 ch, 448 Кбит/с)
Общее
Уникальный идентификатор : 201816887960052614256022723109130860503 (0x97D484CECD0613CAA4772585EBAFF7D7)
Полное имя : D:110000.Let.Do.Nashey.Ery.2008.x264.BDRip.(AVC).ExKinoRay.mkv
Формат : Matroska
Размер файла : 3,06 Гбайт
Продолжительность : 1 ч. 48 м.
Общий поток : 4028 Кбит/сек
Название фильма : Rip by Enigma-Vladislav71
Дата кодирования : UTC 2013-04-02 18:24:17
Программа кодирования : mkvmerge v4.0.0 ('The Stars were mine') сборка от Jun 6 2010 16:18:42
Библиотека кодирования : libebml v1.0.0 + libmatroska v1.0.0

Видео
Идентификатор : 1
Формат : AVC
Формат/Информация : Advanced Video Codec
Профиль формата : High@L4.1
Параметр CABAC формата : Да
Параметр ReFrames формата : 10 кадров
Идентификатор кодека : V_MPEG4/ISO/AVC
Продолжительность : 1 ч. 48 м.
Битрейт : 2299 Кбит/сек
Ширина : 1024 пикс.
Высота : 426 пикс.
Соотношение сторон : 2,40:1
Частота кадров : 23,976 кадр/сек
Цветовое пространство : YUV
Подвыборка цветности : 4:2:0
Битовая глубина : 8 бит
Тип развёртки : Прогрессивная
Бит/(Пиксели*Кадры) : 0.220
Размер потока : 1,69 Гбайт (55%)
Заголовок : 10000.Let.Do.Nashey.Ery.2008.x264.BDRip.(AVC).ExKinoRay
Библиотека кодирования : x264 core 129 r2245 bc13772
Настройки программы : cabac=1 / ref=10 / deblock=1:-3:-3 / analyse=0x3:0x133 / me=umh / subme=11 / psy=1 / psy_rd=1.00:0.00 / mixed_ref=1 / me_range=48 / chroma_me=1 / trellis=2 / 8x8dct=1 / cqm=0 / deadzone=21,11 / fast_pskip=0 / chroma_qp_offset=-2 / threads=3 / lookahead_threads=1 / sliced_threads=0 / nr=0 / decimate=0 / interlaced=0 / bluray_compat=0 / constrained_intra=0 / bframes=8 / b_pyramid=2 / b_adapt=2 / b_bias=0 / direct=3 / weightb=1 / open_gop=0 / weightp=2 / keyint=240 / keyint_min=23 / scenecut=40 / intra_refresh=0 / rc_lookahead=40 / rc=2pass / mbtree=1 / bitrate=2299 / ratetol=1.0 / qcomp=0.60 / qpmin=10 / qpmax=51 / qpstep=4 / cplxblur=20.0 / qblur=0.5 / ip_ratio=1.40 / aq=2:1.00
Язык : English

Аудио #1
Идентификатор : 2
Формат : AC-3
Формат/Информация : Audio Coding 3
Расширение режима : CM (complete main)
Идентификатор кодека : A_AC3
Продолжительность : 1 ч. 48 м.
Вид битрейта : Постоянный
Битрейт : 448 Кбит/сек
Каналы : 6 каналов
Расположение каналов : Front: L C R, Side: L R, LFE
Частота : 48,0 КГц
Битовая глубина : 16 бит
Метод сжатия : С потерями
Размер потока : 349 Мбайт (11%)
Заголовок : Дублированный
Язык : Russian

Аудио #2
Идентификатор : 3
Формат : AC-3
Формат/Информация : Audio Coding 3
Расширение режима : CM (complete main)
Идентификатор кодека : A_AC3
Продолжительность : 1 ч. 48 м.
Вид битрейта : Постоянный
Битрейт : 448 Кбит/сек
Каналы : 6 каналов
Расположение каналов : Front: L C R, Side: L R, LFE
Частота : 48,0 КГц
Битовая глубина : 16 бит
Метод сжатия : С потерями
Размер потока : 349 Мбайт (11%)
Заголовок : многоголосый
Язык : Russian

Аудио #3
Идентификатор : 4
Формат : AC-3
Формат/Информация : Audio Coding 3
Расширение режима : CM (complete main)
Идентификатор кодека : A_AC3
Продолжительность : 1 ч. 48 м.
Вид битрейта : Постоянный
Битрейт : 384 Кбит/сек
Каналы : 6 каналов
Расположение каналов : Front: L C R, Side: L R, LFE
Частота : 48,0 КГц
Битовая глубина : 16 бит
Метод сжатия : С потерями
Размер потока : 299 Мбайт (10%)
Заголовок : Немахов
Язык : Russian

Аудио #4
Идентификатор : 5
Формат : AC-3
Формат/Информация : Audio Coding 3
Расширение режима : CM (complete main)
Идентификатор кодека : A_AC3
Продолжительность : 1 ч. 48 м.
Вид битрейта : Постоянный
Битрейт : 448 Кбит/сек
Каналы : 6 каналов
Расположение каналов : Front: L C R, Side: L R, LFE
Частота : 48,0 КГц
Битовая глубина : 16 бит
Метод сжатия : С потерями
Размер потока : 349 Мбайт (11%)
Заголовок : English
Язык : English

Текст #1
Идентификатор : 6
Формат : UTF-8
Идентификатор кодека : S_TEXT/UTF8
Идентификатор кодека/Информация : UTF-8 Plain Text
Язык : Russian

Текст #2
Идентификатор : 7
Формат : UTF-8
Идентификатор кодека : S_TEXT/UTF8
Идентификатор кодека/Информация : UTF-8 Plain Text
Язык : English

Меню
00:00:00.000 : en:Chapter 1
00:05:35.668 : en:Chapter 2
00:09:46.168 : en:Chapter 3
00:13:39.860 : en:Chapter 4
00:17:27.254 : en:Chapter 5
00:20:22.679 : en:Chapter 6
00:24:48.278 : en:Chapter 7
00:27:51.670 : en:Chapter 8
00:30:28.827 : en:Chapter 9
00:34:41.662 : en:Chapter 10
00:39:04.467 : en:Chapter 11
00:44:46.141 : en:Chapter 12
00:47:53.495 : en:Chapter 13
00:52:24.099 : en:Chapter 14
00:56:56.704 : en:Chapter 15
01:01:34.190 : en:Chapter 16
01:06:30.736 : en:Chapter 17
01:10:58.045 : en:Chapter 18
01:13:46.505 : en:Chapter 19
01:17:18.550 : en:Chapter 20
01:19:43.528 : en:Chapter 21
01:24:17.177 : en:Chapter 22
01:29:54.263 : en:Chapter 23
01:32:52.066 : en:Chapter 24
01:35:40.985 : en:Chapter 25
01:37:52.032 : en:Chapter 26
01:48:55.445 : en:Chapter 27
Семпл Релиз от:

Авторы релиза:



Скачать 10.000.лет.до.н.э.10.000.B.C.(Роланд.Эммерих).[2008.приключения.драма.фэнтези.BDRip-AVC].[Dub]+[MVO]+[AVO]+[Sub].torrent без регистрации
Золото ЗОЛОТАЯ РАЗДАЧА! СКАЧАННОЕ НЕ ЗАСЧИТЫВАЕТСЯ! Золото
Дата: Зарегистрирован   [ Тип: внутренний ] Как тут cкачать?
MAGNET ссылка
MAGNET ссылка


Скачать .torrent

16 KB

Статус: проверено DHT
Скачан: торрент - 108 раз, раздача полностью - 31 раз
Размер: 3,06 GB
Оценка:  - (Голосов: 0)
Поблагодарили: 0
Поделиться ссылкой на эту раздачу с друзьями:
В контактеFacebookОдноклассникиTwitterLivejournalМой МирLiveinternet
 

 
Показать сообщения:    


Вы не можете начинать темы
Вы не можете отвечать на сообщения
Вы не можете редактировать свои сообщения
Вы не можете удалять свои сообщения
Вы не можете голосовать в опросах
Вы не можете прикреплять файлы к сообщениям
Вы можете скачивать файлы