Loading...
Error

Скачать Тёмное дитя / Orphan Black (сезон 01) (Джон Фоусет, Т.Дж. Скотт) [2013, фантастика, боевик, драма, WEB-DLRip] [MVO (BaibaKo)] торрент без регистрации

 
Статистика раздачи
Размер:  5,89 GB   |    Скачан:  2208 раз
Сидов:  1  [  0 KB/s  ]  
 
Автор Сообщение

МихаНЕзатор

[] 

Название: Тёмное дитя
Оригинальное название: Orphan Black
Год выпуска: 2013
Жанр: фантастика, боевик, драма
Режиссер: Джон Фоусет, Т.Дж. Скотт
В ролях: Татьяна Маслани, Джордан Джаварис, Дилан Брюс, Скайлер Уэкслер, Мария Дойл Кеннеди, Кевин Ханчард, Инга Кадранел, Рон Лиа, Майкл Мэндо, Дрю Дэвис и др.

Описание: Сара - изгой и сирота, чья жизнь круто меняет после того, как она становится свидетелем самоубийства женщины, которая как две капли воды похожа на нее. Сара выдает себя за погибшую, но вместо того, чтобы избавиться от проблем, она в них только глубже увязает. Девушка делает ошеломляющее открытие - они с умершей не просто похожи... они с ней ... и только ли они вдвоем?

Страна: Канада, США
Продолжительность: 01 х ~ 00:44:00
Перевод: Профессиональный (многоголосый, закадровый) - BaibaKo
Субтитры: нет

Перевод: Янина Галицкая
Озвучка: Юлия Котурбаш, Елена Григорьева, Александр Фурман, Виталий Ткаченко
Монтаж: Павел Дежин



Релиз от:

Качество: WEB-DLRip
Формат: AVI
Видео: XviD, 720x400, ~1500 Kbps
Аудио rus: MP3, 2 ch, 192 kbps
Аудио eng: MP3, 2 ch, 192 kbps

04.06.2013 г. торент обновлён, добавлена 10 серия, сезон полностью!
Общее
Полное имя : D:Dian KehtBaibaKoOrphan.Black.s01e01.WEB-DLRip.Rus.Eng.BaibaKo.tv.avi
Формат : AVI
Формат/Информация : Audio Video Interleave
Размер файла : 608 Мбайт
Продолжительность : 44 м.
Общий поток : 1899 Кбит/сек
Программа кодирования : VirtualDubMod 1.5.10.2 (build 2542/release)
Библиотека кодирования : VirtualDubMod build 2542/release

Видео
Идентификатор : 0
Формат : MPEG-4 Visual
Профиль формата : Advanced Simple@L5
Параметр BVOP формата : 2
Параметр QPel формата : Нет
Параметр GMC формата : Без точки перехода
Параметр матрицы формата : Default (H.263)
Идентификатор кодека : XVID
Идентификатор кодека/Подсказка : XviD
Продолжительность : 44 м.
Битрейт : 1501 Кбит/сек
Ширина : 720 пикс.
Высота : 400 пикс.
Соотношение сторон : 16:9
Частота кадров : 23,976 кадр/сек
Цветовое пространство : YUV
Подвыборка цветности : 4:2:0
Битовая глубина : 8 бит
Тип развёртки : Прогрессивная
Метод сжатия : С потерями
Бит/(Пиксели*Кадры) : 0.217
Размер потока : 481 Мбайт (79%)
Библиотека кодирования : XviD 1.2.1 (UTC 2008-12-04)

Аудио #1
Идентификатор : 1
Формат : MPEG Audio
Версия формата : Version 1
Профиль формата : Layer 3
Режим : Joint stereo
Расширение режима : MS Stereo
Идентификатор кодека : 55
Идентификатор кодека/Подсказка : MP3
Продолжительность : 44 м.
Вид битрейта : Постоянный
Битрейт : 192 Кбит/сек
Каналы : 2 канала
Частота : 48,0 КГц
Метод сжатия : С потерями
Размер потока : 61,5 Мбайт (10%)
Выравнивание : Соединение по промежуткам
Продолжительность промежутка : 42 мс. (1,00 видеокадр)
Время предзагрузки промежутка : 504 ms
Библиотека кодирования : LAME3.99r
Настройки программы : -m j -V 4 -q 2 -lowpass 18.6 -b 192

Аудио #2
Идентификатор : 2
Формат : MPEG Audio
Версия формата : Version 1
Профиль формата : Layer 3
Режим : Joint stereo
Расширение режима : MS Stereo
Идентификатор кодека : 55
Идентификатор кодека/Подсказка : MP3
Продолжительность : 44 м.
Вид битрейта : Постоянный
Битрейт : 192 Кбит/сек
Каналы : 2 канала
Частота : 48,0 КГц
Метод сжатия : С потерями
Размер потока : 61,5 Мбайт (10%)
Выравнивание : Соединение по промежуткам
Продолжительность промежутка : 42 мс. (1,00 видеокадр)
Время предзагрузки промежутка : 504 ms
Библиотека кодирования : LAME3.99r
Настройки программы : -m j -V 4 -q 2 -lowpass 18.6 -b 192



Скачать Тёмное.дитя.Orphan.Black.(сезон.01).(Джон.Фоусет.Т.Дж.Скотт).[2013.фантастика.боевик.драма.WEB-DLRip].[MVO.(BaibaKo)].torrent без регистрации
Золото ЗОЛОТАЯ РАЗДАЧА! СКАЧАННОЕ НЕ ЗАСЧИТЫВАЕТСЯ! Золото
Дата: Зарегистрирован   [ Тип: внутренний ] Как тут cкачать?
MAGNET ссылка
MAGNET ссылка


Скачать .torrent

31 KB

Статус: проверено DHT
Скачан: торрент - 2208 раз, раздача полностью - 178 раз
Размер: 5,89 GB
Оценка:  5 (Голосов: 1)
Поблагодарили: 6
Поделиться ссылкой на эту раздачу с друзьями:
В контактеFacebookОдноклассникиTwitterLivejournalМой МирLiveinternet
 

 

МихаНЕзатор

[] 

Раздача обновлена.
 
Показать сообщения:    


Вы не можете начинать темы
Вы не можете отвечать на сообщения
Вы не можете редактировать свои сообщения
Вы не можете удалять свои сообщения
Вы не можете голосовать в опросах
Вы не можете прикреплять файлы к сообщениям
Вы можете скачивать файлы