Loading...
Error

Скачать Рейд возмездия / Active Stealth (Фред Олен Рэй) [1999, боевик, DVDRip] [MVO] торрент без регистрации

 
Статистика раздачи
Размер:  1,37 GB   |    Скачан:  199 раз

Полного источника не было: 27 минут

 
Автор Сообщение

Marsianka

[] 

Страна: США
Производство: Phoenician Entertainment, Synthetic Filmwerx
Жанр: боевик
Год выпуска: 1999

Продолжительность: 01:35:13

Перевод: Профессиональный многоголосый

Оригинальная аудиодорожка: нет

Cубтитры: нет

Режиссер: Фред Олен Рэй

В ролях: Дэниэл Болдуин, Фред Уильямсон, Ханнес Янике, Лиза Видал, Чик Веннера, Тим Эбелл, Пол Майкл Робинсон, Джо Лала, Терри Фанк, Шэннон Уирри, Лэдд Йорк

Описание:Во время проведения операции по освобождению заложников, попавших в руки одного из наркобаронов Центральной Америки Сальваторе, рейнджеры отряда специального назначения «Си» вынуждены оставить на поле боя раненого лейтенанта Ривкина. Под предлогом спасения попавшего в беду товарища полковник Рейнолдс отправляет специальную группу, возглавляемую капитаном Мерфом. Операция настолько секретна, что в качестве средства доставки в центральноамериканские джунгли решили использовать новейший секретнейший истребитель-бомбардировщик «Стэлс».



Исходник: DVD5 R5

Тип релиза: DVDRip

Контейнер: AVI

Видео: 704x528 (1.33:1), 23.976 fps, XviD ~1601 kbps avg 0.18 bit/pixel
Аудио: 48 kHz, AC3 6.0 ~ 448.00 kbps


Общее
Полное имя : D:РаздачиReyd.vozmezdija.1999.XviD.DVDRip.avi
Формат : AVI
Формат/Информация : Audio Video Interleave
Размер файла : 1,37 Гбайт
Продолжительность : 1 ч. 35 м.
Общий поток : 2059 Кбит/сек
Программа кодирования : VirtualDubMod 1.5.10.2 (build 2540/release)
Библиотека кодирования : VirtualDubMod build 2540/release

Видео
Идентификатор : 0
Формат : MPEG-4 Visual
Профиль формата : Advanced Simple@L5
Параметр BVOP формата : 2
Параметр QPel формата : Нет
Параметр GMC формата : Без точки перехода
Параметр матрицы формата : Default (MPEG)
Идентификатор кодека : XVID
Идентификатор кодека/Подсказка : XviD
Продолжительность : 1 ч. 35 м.
Битрейт : 1602 Кбит/сек
Ширина : 704 пикселя
Высота : 528 пикселей
Соотношение сторон : 4:3
Частота кадров : 23,976 кадра/сек
Цветовое пространство : YUV
Субдискретизация насыщенности : 4:2:0
Битовая глубина : 8 бит
Тип развёртки : Прогрессивная
Метод сжатия : С потерями
Бит/(Пиксели*Кадры) : 0.180
Размер потока : 1,07 Гбайт (78%)
Библиотека кодирования : XviD 1.2.1 (UTC 2008-12-04)

Аудио
Идентификатор : 1
Формат : AC-3
Формат/Информация : Audio Coding 3
Расширение режима : CM (complete main)
Параметр Endianness формата : Big
Идентификатор кодека : 2000
Продолжительность : 1 ч. 35 м.
Вид битрейта : Постоянный
Битрейт : 448 Кбит/сек
Каналы : 6 каналов
Расположение каналов : Front: L C R, Side: L R, LFE
Частота : 48,0 КГц
Битовая глубина : 16 бит
Метод сжатия : С потерями
Размер потока : 305 Мбайт (22%)
Выравнивание : Разделение по промежуткам
Продолжительность промежутка : 42 мс. (1,00 видеокадр)
Время предзагрузки промежутка : 500 мс.



Скачать Рейд.возмездия.Active.Stealth.(Фред.Олен.Рэй).[1999.боевик.DVDRip].[MVO].torrent без регистрации
Золото ЗОЛОТАЯ РАЗДАЧА! СКАЧАННОЕ НЕ ЗАСЧИТЫВАЕТСЯ! Золото
Дата: Зарегистрирован   [ Тип: внутренний ] Как тут cкачать?
MAGNET ссылка
MAGNET ссылка


Скачать .torrent

14 KB

Статус: проверено DHT
Скачан: торрент - 199 раз, раздача полностью - 3 раз
Размер: 1,37 GB
Оценка:  - (Голосов: 0)
Поблагодарили: 0
Поделиться ссылкой на эту раздачу с друзьями:
В контактеFacebookОдноклассникиTwitterLivejournalМой МирLiveinternet
 

 
Показать сообщения:    


Вы не можете начинать темы
Вы не можете отвечать на сообщения
Вы не можете редактировать свои сообщения
Вы не можете удалять свои сообщения
Вы не можете голосовать в опросах
Вы не можете прикреплять файлы к сообщениям
Вы можете скачивать файлы