Loading...
Error

Скачать Зомби 5: Смертоносные птицы / Killing birds - Raptors (Клаудио Латтанци, Джо Д`Амато) [1988, ужасы, триллер, детектив, DVDRip] [AVO] торрент без регистрации

 
Статистика раздачи
Размер:  747 MB   |    Скачан:  111 раз
Сидов:  1  [  0 KB/s  ]  
 
Автор Сообщение

Marsianka

[] 

Зомби 5: Смертоносные птицы
Killing birds - Raptors

Страна: Италия
Жанр: ужасы, триллер, детектив
Год выпуска: 1988
Продолжительность: 01:31:49
Перевод: Авторский (одноголосый закадровый) [Сергей Визгунов]
Субтитры: нет

Режиссёр: Клаудио Латтанци / Claudio Lattanzi, Джо Д`Амато / Joe D'Amato
В ролях: Лара Вендель, Роберт Вон, Тимоти В. Уоттс, Лесли Камминг, Джеймс Вильмэр, Сэл Мэжжор, James Sutterfield, Lin Gathright, Бриджитт Пайе, Нона Пайе

Описание фильма: Чтобы понаблюдать за птицами, студенты-орнитологи отправляются в местность где много лет назад ветеран вьетнамской войны убил неверную жену, ее любовника и ее родителей. Молодежь осталась на ночь в доме где и произошла эта трагедия. Призраки прошлого не заставили себя ждать...




Качество: DVDRip
Формат: AVI
Видео: XviD; 640x368 (16:9); 997 Kbps; 29,970 fps; 0,141 bpp
Аудио: MPEG-1 Audio layer 3 (MP3); 128 Kbps; CBR; 2 ch [Russian]









Формат : AVI
Формат/Информация : Audio Video Interleave
Размер файла : 747 Мбайт
Продолжительность : 1 ч. 31 м.
Общий поток : 1138 Кбит/сек
Программа кодирования : VirtualDubMod 1.5.10.2 (build 2540/release)
Библиотека кодирования : VirtualDubMod build 2540/release

Видео
Идентификатор : 0
Формат : MPEG-4 Visual
Профиль формата : Advanced Simple@L5
Параметр BVOP формата : 1
Параметр QPel формата : Нет
Параметр GMC формата : Без точки перехода
Параметр матрицы формата : Default (H.263)
Идентификатор кодека : XVID
Идентификатор кодека/Подсказка : XviD
Продолжительность : 1 ч. 31 м.
Битрейт : 998 Кбит/сек
Ширина : 640 пикс.
Высота : 368 пикс.
Соотношение сторон : 16:9
Частота кадров : 29,970 кадр/сек
Цветовое пространство : YUV
Подвыборка цветности : 4:2:0
Битовая глубина : 8 бит
Тип развёртки : Прогрессивная
Метод сжатия : С потерями
Бит/(Пиксели*Кадры) : 0.141
Размер потока : 655 Мбайт (88%)
Библиотека кодирования : XviD 1.2.0.dev47 (UTC 2006-11-01)

Аудио
Идентификатор : 1
Формат : MPEG Audio
Версия формата : Version 1
Профиль формата : Layer 3
Идентификатор кодека : 55
Идентификатор кодека/Подсказка : MP3
Продолжительность : 1 ч. 31 м.
Вид битрейта : Постоянный
Битрейт : 128 Кбит/сек
Каналы : 2 канала
Частота : 48,0 КГц
Метод сжатия : С потерями
Размер потока : 84,1 Мбайт (11%)
Выравнивание : Соединение по промежуткам
Продолжительность промежутка : 33 мс. (1,00 видеокадр)
Время предзагрузки промежутка : 504 ms
Библиотека кодирования : LAME3.97
Настройки программы : -m s -V 4 -q 2 -lowpass 17 -b 128

Релиз от: *Jonathan*



Скачать Зомби.5.Смертоносные.птицы.Killing.birds.-.Raptors.(Клаудио.Латтанци.Джо.Д`Амато).[1988.ужасы.триллер.детектив.DVDRip].[AVO].torrent без регистрации
Золото ЗОЛОТАЯ РАЗДАЧА! СКАЧАННОЕ НЕ ЗАСЧИТЫВАЕТСЯ! Золото
Дата: Зарегистрирован   [ Тип: внутренний ] Как тут cкачать?
MAGNET ссылка
MAGNET ссылка


Скачать .torrent

15 KB

Статус: проверено DHT
Скачан: торрент - 111 раз, раздача полностью - 15 раз
Размер: 747 MB
Оценка:  5 (Голосов: 1)
Поблагодарили: 3
Поделиться ссылкой на эту раздачу с друзьями:
В контактеFacebookОдноклассникиTwitterLivejournalМой МирLiveinternet
 

 
Показать сообщения:    


Вы не можете начинать темы
Вы не можете отвечать на сообщения
Вы не можете редактировать свои сообщения
Вы не можете удалять свои сообщения
Вы не можете голосовать в опросах
Вы не можете прикреплять файлы к сообщениям
Вы можете скачивать файлы