Loading...
Error

Скачать Ходячие мертвецы / The Walking Dead (сезоны 01-07) (Эрнест Р. Дикерсон м др.) [2010-2017, мистика, триллер, драма, фантастика, BDRip, WEB-DLRip] [MVO (LostFilm)] торрент без регистрации

Статистика раздачи
Размер:  76,57 GB   |    Скачан:  4027 раз

Полного источника не было: 24 минуты


 
 
 
Автор Сообщение

МихаНЕзатор

[] 

Информация о фильме
Название: Ходячие мертвецы
Оригинальное название: The Walking Dead
Год выхода: 2010-2017
Жанр: мистика, триллер, драма, приключения
Режиссер: Эрнест Р. Дикерсон, Билл Джирхарт, Гай Ферленд

В ролях: Эндрю Линкольн, Сара Уэйн Кэллис, Лори Холден, Стивен Юн, Чендлер Риггз, Норман Ридус, Айрон Э. Синглтон, Мелисса Сюзанн МакБрайд, Лорен Коэн, Джон Бернтал

О фильме: Сериал рассказывает историю жизни семьи шерифа после того, как «зомби» — эпидемия апокалиптических масштабов захлестнула земной шар. Шериф Рик Граймс путешествует со своей семьей и небольшой группой выживших в поисках безопасного места для жизни. Но постоянный страх смерти каждый день приносит тяжелые потери, заставляя героев почувствовать глубины человеческой жестокости. Рик пытается спасти свою семью, и открывает для себя, что всепоглощающий страх тех, кто выжил, может быть опаснее бессмысленных мертвецов, бродящих по земле.



Страна: США
Продолжительность: ~ 00:44:00
Перевод: Профессиональный (многоголосый, закадровый) - LostFilm

Файл
Качество: BDRip, WEB-DLRip
Формат: AVI
Видео: MPEG-4 AVC, ~ 2000 Кбит/с, 720x400
Звук: Русский (AC3, 2 ch, 384 Кбит/с), (AC3, 6 ch, 384 Кбит/с)
Субтитры: нет

АНОНСЫ ПОПУЛЯРНЫХ РАЗДАЧ


орент обновлён, добавлена 99-я серия!

HDClub, NNM-Club, Дядя Шарик ®
BDRip (1-3 сезоны), WEB-DLRip (4-6 сезоны)
Аудио: AC3, 6 каналов (1-4 сезоны) | 2 канала (5-6 сезоны), 384 Кбит/сек
Озвучивание студии LostFilm

1 сезон (2010 год):
1x01 Дни, изменившие мир - 31 октября 2010
1x02 Кишки - 7 ноября 2010
1x03 Расскажи это лягушкам - 14 ноября 2010
1x04 Братки - 21 ноября 2010
1x05 Инфекция - 28 ноября 2010
1x06 ТС-19 - 5 декабря 2010

2 сезон (2011-2012 годы):
2x01 Что ждёт впереди - 16 октября 2011
2x02 Кровопускание - 23 октября 2011
2x03 Во спасение последнего - 30 октября 2011
2x04 Роза чероки - 6 ноября 2011
2x05 Чупакабра - 13 ноября 2011
2x06 Секреты - 20 ноября 2011
2x07 Уже почти мёртв - 27 ноября 2011
2x08 Небраска - 12 февраля 2012
2x09 Палец на курке - 19 февраля 2012
2x10 18 миль - 26 февраля 2012
2x11 Судья, присяжные и палач - 4 марта 2012
2x12 Лучшие ангелы - 11 марта 2012
2x13 Возле угасающего огня - 18 марта 2012

3 сезон (2012-2013 годы):
3x01 Начало - 14 октября 2012
3x02 Больной - 21 октября 2012
3x03 Пойдем со мной - 28 октября 2012
3x04 Убийца внутри - 4 ноября 2012
3x05 Ты только скажи - 11 ноября 2012
3x06 Затравленные - 18 ноября 2012
3x07 Когда мёртвые стучатся - 25 ноября 2012
3x08 Рождённый страдать - 2 декабря 2012
3x09 Король Суицида - 10 февраля 2013
3x10 Дом - 17 февраля 2013
3x11 Я не Иуда - 24 февраля 2013
3x12 Очищенный - 3 марта 2013
3x13 Стрела на дверном косяке - 10 марта 2013
3x14 Добыча - 17 марта 2013
3x15 Эта горестная жизнь - 24 марта 2013
3x16 Добро пожаловать в могилы - 31 марта 2013

4 сезон (2013-2014 годы):
4x01 30 дней без происшествий - 13 октября 2013
4x02 Инфекция - 20 октября 2013
4x03 Изоляция - 27 октября 2013
4x04 Безразличие - 3 ноября 2013
4x05 Интернирование - 10 ноября 2013
4x06 Живая приманка - 17 ноября 2013
4x07 Мёртвый груз - 24 ноября 2013
4x08 Зайдя слишком далеко - 1 декабря 2013
4x09 После - 9 февраля 2014
4x10 Обитатели - 16 февраля 2014
4x11 Требование - 23 февраля 2014
4x12 Безмолвные - 2 марта 2014
4x13 Одиночка - 9 марта 2014
4x14 Роща - 16 марта 2014
4x15 Мы - 23 марта 2014
4x16 A - 30 марта 2014

5 сезон (2014-2015 годы):
5x01 Убежища Нет - 12 октября 2014
5x02 Незнакомцы - 19 октября 2014
5x03 Четыре стены и крыша - 27 октября 2014
5x04 Слэбтаун - 2 ноября 2014
5x05 Самопомощь - 9 ноября 2014
5x06 Поглощенный - 16 ноября 2014
5x07 Крещеный - 23 ноября 2014
5x08 Хвост - 30 ноября 2014
5x09 Что случилось и что происходит - 8 февраля 2015
5x10 К ним - 15 февраля 2015
5x11 Расстояние - 22 февраля 2015
5x12 Помни - 1 марта 2015
5x13 Забыть - 8 марта 2015
5x14 Тратить - 15 марта 2015
5x15 Пытаться - 22 марта 2015
5x16 Подчинить - 29 марта 2015

6 сезон (2015-2016 годы):
6x01 Снова как в первый раз - 11 октября 2015
6x02 Выживи как-нибудь - 18 октября 2015
6x03 Спасибо - 25 октября 2015
6x04 Настоящее не с нами - 1 ноября 2015
6x05 Сейчас - 8 ноября 2015
6x06 Всегда ответственный - 15 ноября 2015
6x07 Берегись - 22 ноября 2015
6x08 От начала до конца - 29 ноября 2015
6х09 Выхода нет / No Way Out
6х10 Новый мир / The Next World
6х11 Узлы развязаны / Knots Untie
6х12 Завтра еще не настало / Not Tomorrow Yet
6х13 В одной лодке / The Same Boat
6х14 Вдвое дальше / Twice as Far
6х15 Восток / East
6х16 Последний день на Земле / Last Day on Earth

7 сезон (2016-2017 годы):
01 - Настанет день, где не будет тебя / The Day Will Come When You Won't Be
02 - Колодец / The Well
03 - Камера / The Cell
04 - Услуга / Service
05 - Ловкие дельцы / Go Getters
06 - Клятва / Swear

Общее
Полное имя : 1x01 - Дни, изменившие мир.mp4
Формат : MPEG-4
Профиль формата : Base Media
Идентификатор кодека : isom
Размер файла : 712 Мбайт
Продолжительность : 1 ч. 7 м.
Режим общего битрейта : Переменный
Общий поток : 1485 Кбит/сек
Программа кодирования : Lavf55.37.101

Видео
Идентификатор : 1
Формат : HEVC
Формат/Информация : High Efficiency Video Coding
Профиль формата : Main@L3.1
Идентификатор кодека : hev1
Идентификатор кодека/Информация : High Efficiency Video Coding
Продолжительность : 1 ч. 7 м.
Битрейт : 1315 Кбит/сек
Ширина : 1280 пикселей
Высота : 720 пикселей
Соотношение сторон : 16:9
Режим частоты кадров : Постоянный
Частота кадров : 23,976 кадра/сек
Цветовое пространство : YUV
Субдискретизация насыщенности : 4:2:0
Битовая глубина : 8 бит
Тип развёртки : Прогрессивная
Бит/(Пиксели*Кадры) : 0.059
Размер потока : 631 Мбайт (89%)

Аудио
Идентификатор : 2
Формат : AAC
Формат/Информация : Advanced Audio Codec
Профиль формата : LC
Идентификатор кодека : 40
Продолжительность : 1 ч. 7 м.
Вид битрейта : Переменный
Битрейт : 165 Кбит/сек
Максимальный битрейт : 192 Кбит/сек
Каналы : 2 канала
Расположение каналов : Front: L R
Частота : 48,0 КГц
Метод сжатия : С потерями
Размер потока : 79,3 Мбайт (11%)
Язык : Russian




Скачать Ходячие.мертвецы.The.Walking.Dead.(сезоны.01-07).(Эрнест.Р.Дикерсон.м.др.).[2010-2017.мистика.триллер.драма.фантастика.BDRip.WEB-DLRip].[MVO.(LostFilm)].torrent без регистрации
Золото ЗОЛОТАЯ РАЗДАЧА! СКАЧАННОЕ НЕ ЗАСЧИТЫВАЕТСЯ! Золото
Дата: Зарегистрирован   [ Тип: внутренний ] Как тут cкачать?
MAGNET ссылка
MAGNET ссылка


Скачать .torrent

393 KB

Статус: проверено DHT
Скачан: торрент - 4027 раз, раздача полностью - 3 раз
Размер: 76,57 GB
Оценка:  4,9 (Голосов: 12)
Поблагодарили: 30
Поделиться ссылкой на эту раздачу с друзьями:
В контактеFacebookОдноклассникиTwitterLivejournalМой МирLiveinternet
 

 
Показать сообщения:    


Вы не можете начинать темы
Вы не можете отвечать на сообщения
Вы не можете редактировать свои сообщения
Вы не можете удалять свои сообщения
Вы не можете голосовать в опросах
Вы не можете прикреплять файлы к сообщениям
Вы можете скачивать файлы